Жіночий рай / Il paradiso delle signore (Сезон 1-2) (2015-2017) -AVC

Нові коментарі

Нова тема   Відповісти
Останній раз роздавалося sergiyko.5 (2020-10-01)
Автор Повідомлення
sergiyko.5 
VIP


З нами з: 25.02.16
Востаннє: 01.10.20
Повідомлень: 3488

2020-02-10 14:00  
Всі одноіменні релізи на трекері

Жіночий рай / Il paradiso delle signore (Сезон 1-2) (2015-2017) -AVC


Жіночий рай / Il paradiso delle signore (Сезон 1-2) (2015-2017) -AVC

Жанр: драма
Країна: Італія
Режисер: Моніка Вулло
Актори: Джузеппе Дзено (Giuseppe Zeno), Джузі Бушемі (Giusy Buscemi), Алессандро Терсіньї (Alessandro Tersigni), Кристіане Філанджері (Christiane Filangieri), Лорена Каччаторе (Lorena Cacciatore), Джулія Веккьо (Giulia Vecchio), Сільвія Мацціері (Silvia Mazzieri), Аліче Торріані (Alice Torriani), Андреа Пеннаккі (Andrea Pennacchi), Ріккардо Леонеллі (Riccardo Leonelli), Валерія Фабріці (Valeria Fabrizi)

Сюжет:
Італійська адаптація однойменного роману Еміля Золя. Захоплюючий сюжет псевдоісторичної драми про один крок від ненависті до любові, про підступи конкурентів, підкилимних іграх серед колег з авантюризмом, притаманному того часу.
Дія серіалу розгортається в Мілані, в 1956 році. Молода дівчина Тереза ​​Йоріо приїжджає з Сицилії погостювати у родичів, поки вдома не вщухне скандал через її відмови вийти заміж дуже вигідно, але за людину, який почав обманювати її ще до весілля. Та виявляється, що дядько, до якого вона їхала погостювати, на межі банкрутства, і щоб підтримати сім'ю, Тереза ​​йде влаштовуватися в великий універмаг - нове явище того часу. Це не просто великий магазин, це рай для будь-якої жінки! Рай, яким вміло, випереджаючи віяння часу, управляє П'єтро Морі.




Тривалість: 1 серія: 50:40 (цілком серій: 20+20 з 40)
Якість:

Відео: кодек: розмір кадру: 1024 х 576 бітрейт: ~3000 кб/с
Аудіо: мова: українська переклад: багатоголосий закадровий кодек: 2.0 бітрейт: 224 кб/с

Додаткова інформація: Серія 8 другого сезону має неповний відеоряд. Після повторної трансляції торент буде оновлено.
Перелік серій
Сезон 1:
01. L'estate d'inverno
02. Non arrendersi mai
03. Responsabilità
04. La settimana del sud
05. Il Bello per tutti
06. Lucciole e sogni
07. Liberazione
08. A mali estremi
09. Il Bacio
10. Come una famiglia
11. I sogni son desideri
12. La festa della mamma
13. Uomini, mezz'uomini, ominicchi e quaquaraquà
14. La prova del fuoco'
15. La testa e il cuore
16. Puoi farcela
17. Il momento di decidere
18. Ostacoli
19. Andrea Doria
20. Tutta la verità

Сезон 2:
01 Un nuovo inizio
02 Miss Paradiso
03 Marcinelle
04 Veneri in bicicletta
05 Una tenera canaglia
06 La settimana di San Remigio
07 Regine per un giorno
08 Lascia o raddoppia
09 Anche gli uomini vanno in paradiso
10 Nuovi sodalizi
11 Il sogno americano
12 Dio salvi il popolo ungherese
13 Il paradiso perduto
14 Il sole del paradiso
15 I duellanti
16 Presunto innocente
17 Lo spirito natalizio
18 Natale al paradiso
19 Sconti e conti di fine anno
20 Conto alla rovescia
Про файл:
General
Unique ID : 168673178022002520343448223688234599109 (0x7EE545BE6A41EE00AEBCF175031F82C5)
Complete name : D:\Documents\Torrents\Rizne\Il paradiso delle signore \Il paradiso delle signore S01 \Il paradiso delle signore.S01E01..
Format :
Format version : Version 4
File size : 611 MiB
Duration : 50 min 42 s
Overall bit rate : 1 683 kb/s
Movie name : rip by sergiyko
Writing application : Lavf58.27.103
Writing library : Lavf58.27.103
ErrorDetectionType : Per level 1

Video
ID : 1
Format : AVC
Format/Info : Advanced Video Codec
Format profile : [email protected]
Format settings : CABAC / 7 Ref Frames
Format settings, CABAC : Yes
Format settings, Reference : 7 frames
Codec ID : V_MPEG4/ISO/AVC
Duration : 50 min 42 s
Bit rate : 3 924 kb/s
Width : 1 024 pixels
Height : 576 pixels
Display aspect ratio : 16:9
Frame rate mode : Constant
Frame rate : 25.000 FPS
Color space : YUV
Chroma subsampling : 4:2:0
Bit depth : 8 bits
Scan type : Progressive
Bits/(Pixel*Frame) : 0.266
Stream size : 1.39 GiB
Writing library : core 157 r2970 5493be8
Encoding settings : cabac=1 / ref=7 / deblock=1:0:0 / analyse=0x3:0x133 / me=umh / subme=10 / psy=1 / psy_rd=1.00:0.00 / mixed_ref=1 / me_range=24 / chroma_me=1 / trellis=2 / 8x8dct=1 / cqm=0 / deadzone=21,11 / fast_pskip=1 / chroma_qp_offset=-2 / threads=18 / lookahead_threads=3 / sliced_threads=0 / nr=0 / decimate=1 / interlaced=0 / bluray_compat=0 / constrained_intra=0 / bframes=8 / b_pyramid=2 / b_adapt=2 / b_bias=0 / direct=3 / weightb=1 / open_gop=0 / weightp=2 / keyint=250 / keyint_min=25 / scenecut=40 / intra_refresh=0 / rc_lookahead=60 / rc=crf / mbtree=1 / crf=20.0 / qcomp=0.60 / qpmin=0 / qpmax=69 / qpstep=4 / ip_ratio=1.40 / aq=1:1.00
Language : English
Default : Yes
Forced : No

Audio
ID : 2
Format : LC
Format/Info : Advanced Audio Codec Low Complexity
Codec ID : A_AAC-2
Duration : 50 min 42 s
Bit rate : 233 kb/s
Channel(s) : 2 channels
Channel layout : L R
Sampling rate : 44.1 kHz
Frame rate : 43.066 FPS (1024 SPF)
Compression mode : Lossy
Stream size : 84.6 MiB (14%)
Language : Ukrainian
Default : Yes
Forced : No
Скріншоти:


Запис: sergiyko


Бронзовий реліз (на рейтинг впливає 75% завантаженого)
 Трекер:    Зареєстрований   

Завантажити / скачати серіал українською



відео для новачків



 Зареєстрований:   2020-06-29 13:54
 Розмір:   21.79 GB 
 Оцінка серіалу:   8.2/10 (Голосів: 5)
   
sergiyko.5 
VIP


З нами з: 25.02.16
Востаннє: 01.10.20
Повідомлень: 3488

2020-02-12 14:24  
Додав 2-3 серії
Ella1 
Свій


З нами з: 25.12.09
Востаннє: 15.09.20
Повідомлень: 93

2020-02-14 08:10  
Дивно, що французи не знімають ""Дамське щастя". Англійці зняли, тепер от італійці.
sergiyko.5 
VIP


З нами з: 25.02.16
Востаннє: 01.10.20
Повідомлень: 3488

2020-02-14 15:57  
Додав 4-5 серії.
sergiyko.5 
VIP


З нами з: 25.02.16
Востаннє: 01.10.20
Повідомлень: 3488

2020-02-23 16:43  
Додав 6-10 серії.
sergiyko.5 
VIP


З нами з: 25.02.16
Востаннє: 01.10.20
Повідомлень: 3488

2020-02-28 15:46  
Додав 11-15 серії
sergiyko.5 
VIP


З нами з: 25.02.16
Востаннє: 01.10.20
Повідомлень: 3488

2020-03-07 17:36  
Додав 16-20 серії. Сезон повний. Приємного перегляду !
sergiyko.5 
VIP


З нами з: 25.02.16
Востаннє: 01.10.20
Повідомлень: 3488

2020-04-28 23:10  
Додав другий сезон окрім 19 серії.
sergiyko.5 
VIP


З нами з: 25.02.16
Востаннє: 01.10.20
Повідомлень: 3488

2020-06-29 13:55  
Торент оновлено. Додав відсутню 19 серію другого сезону. Приємного перегляду.
NemoInFire 
Відео Гуртом - фільмокрай
Відео Гуртом - фільмокрай


З нами з: 12.11.07
Востаннє: 30.09.20
Повідомлень: 663

2020-07-01 18:13  
Свого часу сподобалась версія від BBC, зараз і ця теж.
Джузі Бушемі втілила на екрані просто фантастичну Терезу.

Дякую за реліз.

Ваш часовий пояс: GMT + 2 Години

Нова тема   Відповісти