21 міст / 21 Bridges (2019) 720p Ukr/Eng | Sub Eng

Нові коментарі

Нова тема   Відповісти
Автор Повідомлення
Anonymous 







2020-02-09 20:44  
21 міст / 21 Bridges (2019) 720p Ukr/Eng | Sub Eng


«Від нього не втекти»



Жанр: бойовик, драма, кримінал, трилер
Країна: США



Кінокомпанія: AGBO, Huayi Brothers, MWM Studios
Режисер: Брайан Кірк
Актори: Чедвік Боузман, Сієнна Міллер,Тейлор Кітч, Дж. К. Сіммонс, Кіт Девід, Стівен Джеймс, Крістіан Айзіа

Сюжет:
Знаменитий детектив нью-йоркської поліції стає учасником масштабної операції з полювання на вбивць двох поліцейських. Коли ситуація загострюється, влада вирішує вжити надзвичайних заходів, щоб не дати вбивцям піти з Мангеттена, — вперше в історії перекрити для руху усі 21 міст острова. Тепер, коли Мангеттен заблокований на в'їзд та виїзд, герою доведеться самостійно з'ясувати, хто є хто в цьому місті.


Тривалість: 01:39:57
Якість: 720p

Відео:
кодек:
розмір кадру: 1280x536
бітрейт: 5453 кб/с

Аудіо # 1:
мова: українська
переклад: професійний дубльований
кодек: 2.0 (стерео)
бітрейт: 192 кб/с

Аудіо # 2:
мова: англійська
переклад: оригінал
кодек: 5.1
бітрейт: 640 кб/с

Субтитри: (Full, SDH)
мова: англійська
тип: програмні (м'які)
формат: *.srt
Info
Код:
General
Complete name                            : 21 Bridges (2019) 720p [ukr,eng] [ViDeO_Hurtom].
Format                                   :
Format version                           : Version 4
File size                                : 4.39 GiB
Duration                                 : 1 h 39 min
Overall bit rate                         : 6 288 kb/s
Encoded date                             : UTC 2020-02-09 20:05:56
Writing application                      : v30.1.0 ('Forever And More') 64-bit
Writing library                          : libebml v1.3.6 + v1.4.9
Cover                                    : Yes
Attachments                              : cover.jpg

Video
ID                                       : 1
Format                                   : AVC
Format/Info                              : Advanced Video Codec
Format profile                           : [email protected]
Format settings                          : CABAC / 12 Ref Frames
Format settings, CABAC                   : Yes
Format settings, RefFrames               : 12 frames
Codec ID                                 : V_MPEG4/ISO/AVC
Duration                                 : 1 h 39 min
Bit rate                                 : 5 453 kb/s
Width                                    : 1 280 pixels
Height                                   : 536 pixels
Display aspect ratio                     : 2.40:1
Frame rate mode                          : Constant
Frame rate                               : 23.976 (24000/1001) FPS
Color space                              : YUV
Chroma subsampling                       : 4:2:0
Bit depth                                : 8 bits
Scan type                                : Progressive
Bits/(Pixel*Frame)                       : 0.332
Stream size                              : 3.81 GiB (87%)
Writing library                          : core 158 r2984+49 6932f4a t_mod_New [[email protected] X86_64]
Encoding settings                        : cabac=1 / ref=12 / deblock=1:-3:-3 / analyse=0x3:0x133 / me=umh / subme=10 / psy=1 / fade_compensate=0.00 / psy_rd=1.00:0.00 / mixed_ref=1 / me_range=32 / chroma_me=1 / trellis=2 / 8x8dct=1 / cqm=0 / deadzone=21,11 / fast_pskip=0 / chroma_qp_offset=-2 / threads=16 / lookahead_threads=4 / sliced_threads=0 / nr=0 / decimate=0 / interlaced=0 / bluray_compat=0 / constrained_intra=0 / fgo=0 / bframes=12 / b_pyramid=2 / b_adapt=2 / b_bias=0 / direct=3 / weightb=1 / open_gop=0 / weightp=2 / keyint=480 / keyint_min=24 / scenecut=40 / intra_refresh=0 / rc_lookahead=80 / rc=crf / mbtree=0 / crf=16.5000 / qcomp=0.60 / qpmin=0:0:0 / qpmax=69:69:69 / qpstep=4 / vbv_maxrate=62500 / vbv_bufsize=78125 / crf_max=0.0 / nal_hrd=none / filler=0 / ip_ratio=1.30 / pb_ratio=1.20 / aq=3:0.80 / aq-sensitivity=10.00 / aq-factor=1.00:1.00:1.00 / aq2=0 / aq3=0
Language                                 : English
Default                                  : Yes
Forced                                   : No
Color range                              : Limited
Color primaries                          : BT.709
Transfer characteristics                 : BT.709
Matrix coefficients                      : BT.709

Audio #1
ID                                       : 2
Format                                   : AC-3
Format/Info                              : Audio Coding 3
Commercial name                          : Dolby Digital
Codec ID                                 : A_AC3
Duration                                 : 1 h 39 min
Bit rate mode                            : Constant
Bit rate                                 : 192 kb/s
Channel(s)                               : 2 channels
Channel layout                           : L R
Sampling rate                            : 48.0 kHz
Frame rate                               : 31.250 FPS (1536 SPF)
Bit depth                                : 16 bits
Compression mode                         : Lossy
Stream size                              : 137 MiB (3%)
Title                                    : 2.0 | 192
Language                                 : Ukrainian
Service kind                             : Complete Main
Default                                  : Yes
Forced                                   : No

Audio #2
ID                                       : 3
Format                                   : AC-3
Format/Info                              : Audio Coding 3
Commercial name                          : Dolby Digital
Codec ID                                 : A_AC3
Duration                                 : 1 h 39 min
Bit rate mode                            : Constant
Bit rate                                 : 640 kb/s
Channel(s)                               : 6 channels
Channel layout                           : L R C LFE Ls Rs
Sampling rate                            : 48.0 kHz
Frame rate                               : 31.250 FPS (1536 SPF)
Bit depth                                : 16 bits
Compression mode                         : Lossy
Stream size                              : 458 MiB (10%)
Title                                    : 5.1 | 640
Language                                 : English
Service kind                             : Complete Main
Default                                  : No
Forced                                   : No

Text #1
ID                                       : 4
Format                                   : UTF-8
Codec ID                                 : S_TEXT/UTF8
Codec ID/Info                            : UTF-8 Plain Text
Duration                                 : 1 h 29 min
Bit rate                                 : 52 b/s
Count of elements                        : 1116
Stream size                              : 34.5 KiB (0%)
Title                                    : Full
Language                                 : English
Default                                  : No
Forced                                   : No

Text #2
ID                                       : 5
Format                                   : UTF-8
Codec ID                                 : S_TEXT/UTF8
Codec ID/Info                            : UTF-8 Plain Text
Duration                                 : 1 h 30 min
Bit rate                                 : 56 b/s
Count of elements                        : 1249
Stream size                              : 37.6 KiB (0%)
Title                                    : SDH
Language                                 : English
Default                                  : No
Forced                                   : No

Menu
00:00:00.000                             : :Chapter 01
00:03:16.196                             : :Chapter 02
00:07:48.510                             : :Chapter 03
00:11:59.344                             : :Chapter 04
00:16:54.722                             : :Chapter 05
00:22:33.143                             : :Chapter 06
00:30:54.561                             : :Chapter 07
00:34:50.046                             : :Chapter 08
00:40:16.414                             : :Chapter 09
00:44:39.719                             : :Chapter 10
00:50:54.718                             : :Chapter 11
00:54:04.408                             : :Chapter 12
00:58:52.320                             : :Chapter 13
01:02:08.600                             : :Chapter 14
01:06:19.601                             : :Chapter 15
01:10:27.557                             : :Chapter 16
01:16:19.617                             : :Chapter 17
01:19:19.755                             : :Chapter 18
01:25:15.110                             : :Chapter 19
01:32:34.382                             : :Chapter 20
Скріншоти




Джерело: &
Особиста оцінка: 8 - мені сподобалося


 Трекер:    Зареєстрований   

Завантажити / скачати фільм українською



відео для новачків



 Зареєстрований:   2020-02-09 23:16
 Розмір:   4.39 GB 
 Оцінка фільму:   9.3/10 (Голосів: 20)
   
Інші релізи
   21 міст / 21 Bridges (2019) 1080p H.265 Ukr/Eng | Sub Eng -Star-Lord-  26 / 0   6.37 GB   2020-02-11 00:20 
   21 міст / 21 Bridges (2019) Remux 1080p Ukr/Eng | Sub Eng antik_2008  29 / 0   24.88 GB   2020-02-09 23:36 
   21 міст / 21 Bridges (2019) AVC Ukr/Eng | Sub Eng 11FrYkT  82 / 0   1.72 GB   2020-02-09 23:17 
   21 міст / 21 Bridges (2019) 1080p Ukr/Eng | Sub Eng antik_2008  46 / 1   10.72 GB   2020-02-09 23:15 
   21 міст / 21 Bridges (2019) Ukr/Eng antik_2008  69 / 2   1.95 GB   2020-02-09 23:13 
   21 міст / 21 Bridges (2019) UHD 4K 2160p HDR H.265 Ukr/Eng | Sub Eng antik_2008  10 / 0   17.63 GB   2020-02-08 23:19 
bot 
робот


З нами з: 30.09.07
Востаннє: 26.05.05
Повідомлень: 23390

2020-02-09 23:16  
Тему перенесено з Анонси релізів до форуму Фільми в HD


antik_2008

Panther2214 
Попереджень: 1
Попереджень: 1 


З нами з: 29.09.17
Востаннє: 24.02.20
Повідомлень: 394

2020-02-12 12:51  
Не сперечатимусь, схожий на фільм "Королі вулиць", але цей гірший... Нічим не вразив, все передбачено з самого початку та глянути варто...
_kentavr_ 
Новенький


З нами з: 26.02.09
Востаннє: 23.02.20
Повідомлень: 10

2020-02-19 21:24  
Хороший бойовик + детектив.
Ваш часовий пояс: GMT + 2 Години

Нова тема   Відповісти