Валеріан та місто тисячі планет / Valerian and the City of a Thousand Planets (2017) 1080p H.265 Ukr/Eng | Sub Eng

Нові коментарі

Нова тема   Відповісти
Автор Повідомлення
Anonymous 







2020-02-09 14:28  
Валеріан та місто тисячі планет / Valerian and the City of a Thousand Planets (2017) 1080p H.265 Ukr/Eng | Sub Eng

Валеріан та місто тисячі планет / Valerian and the City of a Thousand Planets (2017) 1080p H.265 Ukr/Eng | Sub Eng


Жанр: фантастика, фентезі, бойовик, пригодницький
Країна: Франція, Китай, Бельгія, Німеччина, Об'єднані Арабські Емірати, США, Велика Британія, Канада
Кінокомпанія: EuropaCorp, Fundamental Films, Grive Productions, TF1 Films Production
Режисер: Люк Бессон / Luc Besson
Актори: Дейн ДеГаан / Dane DeHaan, Кара Делевінь / Cara Delevingne, Клайв Овен / Clive Owen, Ріанна / Rihanna, Ітан Гоук / Ethan Hawke, Гербі Генкок / Herbie Hancock, Кріс Ву / Kris Wu, Сем Спруелл / Sam Spruell, Рутґер Гауер / Rutger Hauer, Ален Шаба / Alain Chabat, Пітер Гадсон / Peter Hudson, Ксавьє Джаннолі / Xavier Giannoli, Луї Летерьє / Louis Leterrier, Саша Лусс / Sasha Luss, Емілін Валаде / Aymeline Valade, Елізабет Дебікі / Elizabeth Debicki, Полін Хоро / Pauline Hoarau, Джон Ґудмен / John Goodman, Леонід Глущенко та інші

Сюжет:
На дворі 28 століття. Валеріан і Лорелін – космічні спецагенти. Їх шлях лежить на Альфу – Місто тисячі планет, яке постійно розширюється, і де різні цивілізації протягом багатьох років обмінювалися знаннями, досвідом і культурою. Завдання Валеріана і Лорелін від Міністерства Захисту – підтримувати порядок всюди, де є люди. У центрі Альфи починають відбуватися дивні події, у чому провиною темні сили. Існування Міста тисячі планет знаходиться під загрозою, а значить і Всесвіт у небезпеці. Валеріан і Лорелін повинні знайти загрозу і знищити її, інакше постраждають мільйони невинних особин різних видів.

Тривалість: 02:16:39
Якість:

Відео:
кодек: H.265 (HEVC)
розмір кадру: 1920 x 800
бітрейт: 5 435 кб/с
бітова глибина: 10 біт

Увага! Перед завантаженням переконайтесь, що ваш пристрій відтворення (та/або ПЗ) підтримує H.265 (HEVC)

Аудіо # 1:
мова: українська
переклад: професійний дубльований
кодек: AC-3 2.0
бітрейт: 192 кб/с

Аудіо # 2:
мова: англійська
переклад: оригінал
кодек: AC-3 5.1
бітрейт: 640 кб/с

Субтитри # 1: (Forced)
мова: українська
тип: програмні (м'які)
формат: *.srt

Субтитри # 2-5: (Forced, Full, SDH, SDH-Colored)
мова: англійська
тип: програмні (м'які)
формат: *.srt


Info
Код:
General
Unique ID                                : 106311096023119088312543813130865068747 (0x4FFAC5B719F3645153A9DFAE8147CACB)
Complete name                            : Valerian and the City of a Thousand Planets (2017) [NOR Transfer] 1080p H.265 [UKR_ENG] [Hurtom].
Format                                   :
Format version                           : Version 4
File size                                : 5.99 GiB
Duration                                 : 2 h 17 min
Overall bit rate                         : 6 253 kb/s
Movie name                               : Валеріан та місто тисячі планет / Valerian and the City of a Thousand Planets (2017)
Encoded date                             : UTC 2020-02-09 10:09:24
Writing application                      : v20.0.0 ('I Am The Sun') 64-bit
Writing library                          : libebml v1.3.5 + v1.4.8
Cover                                    : Yes
Attachments                              : Cover.jpg

Video
ID                                       : 1
Format                                   : HEVC
Format/Info                              : High Efficiency Video Coding
Format profile                           : Main [email protected]@High
Codec ID                                 : V_MPEGH/ISO/HEVC
Duration                                 : 2 h 16 min
Bit rate                                 : 5 435 kb/s
Width                                    : 1 920 pixels
Height                                   : 800 pixels
Display aspect ratio                     : 2.40:1
Frame rate mode                          : Constant
Frame rate                               : 23.976 (24000/1001) FPS
Color space                              : YUV
Chroma subsampling                       : 4:2:0
Bit depth                                : 10 bits
Bits/(Pixel*Frame)                       : 0.148
Stream size                              : 5.19 GiB (87%)
Title                                    : Валеріан та місто тисячі планет / Valerian and the City of a Thousand Planets (2017)
Writing library                          : x265 3.2.1+3-b4b2ecac21f6:[Windows][MSVC 1924][64 bit] 10bit
Encoding settings                        : cpuid=1111039 / frame-threads=3 / numa-pools=12 / wpp / no-pmode / no-pme / no-psnr / no-ssim / log-level=2 / input-csp=1 / input-res=1920x800 / interlace=0 / total-frames=196601 / level-idc=41 / high-tier=1 / uhd-bd=0 / ref=5 / no-allow-non-conformance / no-repeat-headers / annexb / no-aud / no-hrd / info / hash=0 / no-temporal-layers / open-gop / min-keyint=23 / keyint=240 / gop-lookahead=0 / bframes=13 / b-adapt=2 / b-pyramid / bframe-bias=0 / rc-lookahead=60 / lookahead-slices=0 / scenecut=40 / radl=0 / no-splice / no-intra-refresh / ctu=64 / min-cu-size=8 / rect / amp / max-tu-size=32 / tu-inter-depth=4 / tu-intra-depth=4 / limit-tu=1 / rdoq-level=2 / dynamic-rd=0.00 / no-ssim-rd / signhide / no-tskip / nr-intra=0 / nr-inter=0 / no-constrained-intra / no-strong-intra-smoothing / max-merge=5 / limit-refs=3 / no-limit-modes / me=3 / subme=7 / merange=57 / temporal-mvp / no-hme / weightp / weightb / no-analyze-src-pics / deblock=-3:-3 / no-sao / no-sao-non-deblock / rd=6 / selective-sao=0 / no-early-skip / rskip / no-fast-intra / no-tskip-fast / no-cu-lossless / b-intra / no-splitrd-skip / rdpenalty=0 / psy-rd=2.00 / psy-rdoq=1.00 / no-rd-refine / no-lossless / cbqpoffs=0 / crqpoffs=0 / rc=crf / crf=19.3 / qcomp=0.60 / qpstep=4 / stats-write=0 / stats-read=0 / vbv-maxrate=50000 / vbv-bufsize=50000 / vbv-init=0.9 / crf-max=0.0 / crf-min=0.0 / ipratio=1.40 / pbratio=1.30 / aq-mode=4 / aq-strength=0.80 / no-cutree / zone-count=1 / zones: / start-frame=188755 / end-frame=196581 / qp=36 / no-strict-cbr / qg-size=32 / no-rc-grain / qpmax=69 / qpmin=0 / no-const-vbv / sar=1 / overscan=0 / videoformat=5 / range=0 / colorprim=2 / transfer=2 / colormatrix=2 / chromaloc=0 / display-window=0 / cll=0,0 / min-luma=0 / max-luma=1023 / log2-max-poc-lsb=8 / vui-timing-info / vui-hrd-info / slices=1 / no-opt-qp-pps / no-opt-ref-list-length-pps / no-multi-pass-opt-rps / scenecut-bias=0.00 / no-opt-cu-delta-qp / no-aq-motion / no-hdr / no-hdr-opt / no-dhdr10-opt / no-idr-recovery-sei / analysis-reuse-level=5 / scale-factor=0 / refine-intra=0 / refine-inter=0 / refine-mv=1 / refine-ctu-distortion=0 / no-limit-sao / ctu-info=0 / no-lowpass-dct / refine-analysis-type=0 / copy-pic=1 / max-ausize-factor=1.0 / no-dynamic-refine / no-single-sei / no-hevc-aq / no-svt / no-field / qp-adaptation-range=1.00
Language                                 : English
Default                                  : Yes
Forced                                   : Yes

Audio #1
ID                                       : 2
Format                                   : AC-3
Format/Info                              : Audio Coding 3
Commercial name                          : Dolby Digital
Codec ID                                 : A_AC3
Duration                                 : 2 h 17 min
Bit rate mode                            : Constant
Bit rate                                 : 192 kb/s
Channel(s)                               : 2 channels
Channel layout                           : L R
Sampling rate                            : 48.0 kHz
Frame rate                               : 31.250 FPS (1536 SPF)
Compression mode                         : Lossy
Stream size                              : 188 MiB (3%)
Title                                    : / 2.0 Ch / 192 kbps / ПД / Студія Postmodern / Megogo
Language                                 : Ukrainian
Service kind                             : Complete Main
Default                                  : Yes
Forced                                   : Yes

Audio #2
ID                                       : 3
Format                                   : AC-3
Format/Info                              : Audio Coding 3
Commercial name                          : Dolby Digital
Codec ID                                 : A_AC3
Duration                                 : 2 h 16 min
Bit rate mode                            : Constant
Bit rate                                 : 640 kb/s
Channel(s)                               : 6 channels
Channel layout                           : L R C LFE Ls Rs
Sampling rate                            : 48.0 kHz
Frame rate                               : 31.250 FPS (1536 SPF)
Compression mode                         : Lossy
Stream size                              : 626 MiB (10%)
Title                                    : / 5.1 Ch / 640 kbps / Original
Language                                 : English
Service kind                             : Complete Main
Default                                  : No
Forced                                   : No

Text #1
ID                                       : 4
Format                                   : UTF-8
Codec ID                                 : S_TEXT/UTF8
Codec ID/Info                            : UTF-8 Plain Text
Duration                                 : 1 h 42 min
Bit rate                                 : 0 b/s
Count of elements                        : 20
Stream size                              : 600 Bytes (0%)
Title                                    : Forced
Language                                 : Ukrainian
Default                                  : Yes
Forced                                   : Yes

Text #2
ID                                       : 5
Format                                   : UTF-8
Codec ID                                 : S_TEXT/UTF8
Codec ID/Info                            : UTF-8 Plain Text
Duration                                 : 3 min 44 s
Bit rate                                 : 4 b/s
Count of elements                        : 6
Stream size                              : 123 Bytes (0%)
Title                                    : Forced
Language                                 : English
Default                                  : No
Forced                                   : No

Text #3
ID                                       : 6
Format                                   : UTF-8
Codec ID                                 : S_TEXT/UTF8
Codec ID/Info                            : UTF-8 Plain Text
Duration                                 : 2 h 5 min
Bit rate                                 : 51 b/s
Count of elements                        : 1499
Stream size                              : 47.1 KiB (0%)
Title                                    : Full
Language                                 : English
Default                                  : No
Forced                                   : No

Text #4
ID                                       : 7
Format                                   : UTF-8
Codec ID                                 : S_TEXT/UTF8
Codec ID/Info                            : UTF-8 Plain Text
Duration                                 : 2 h 13 min
Bit rate                                 : 63 b/s
Count of elements                        : 1906
Stream size                              : 62.4 KiB (0%)
Title                                    : SDH
Language                                 : English
Default                                  : No
Forced                                   : No

Text #5
ID                                       : 8
Format                                   : UTF-8
Codec ID                                 : S_TEXT/UTF8
Codec ID/Info                            : UTF-8 Plain Text
Duration                                 : 2 h 13 min
Bit rate                                 : 67 b/s
Count of elements                        : 1906
Stream size                              : 66.1 KiB (0%)
Title                                    : SDH-Colored
Language                                 : English
Default                                  : No
Forced                                   : No

Menu
00:00:00.000                             : en:Alpha Station
00:05:12.515                             : en:Tragedy on Mul
00:12:35.713                             : en:Valerian Awakens
00:17:29.590                             : en:Big Market
00:23:35.789                             : en:Seeking the Converter
00:32:45.838                             : en:Escaping Kirian
00:41:19.143                             : en:The City of a Thousand Planets
00:47:15.666                             : en:United Human Federation
00:56:12.410                             : en:Kidnapper Chase
01:04:25.695                             : en:Cortex Jellyfish
01:11:27.908                             : en:Laureline's Abduction
01:20:25.070                             : en:Glampod in Paradise Alley
01:28:13.704                             : en:Boulan Bathors Battle
01:35:53.914                             : en:Bubble Bursts
01:41:35.047                             : en:Emperor Haban Limai
01:49:57.109                             : en:Confronting Commander Filitt
01:53:37.852                             : en:Trust Me
02:01:26.204                             : en:Destiny 2005
02:02:22.585                             : en:Annihilate Them All
02:07:56.506                             : en:Maybe
02:10:25.325                             : en:End Credits
Світлини




Джерело: &
Особиста оцінка: 6 - третій сорт - не брак


 Трекер:    Зареєстрований   

Завантажити / скачати фільм українською



відео для новачків



 Зареєстрований:   2020-02-09 14:28
 Розмір:   5.99 GB 
 Оцінка фільму:   7.8/10 (Голосів: 14)
   
Ваш часовий пояс: GMT + 2 Години

Нова тема   Відповісти