Вірус кохання / Get Over It (2001) 1080p Ukr/Eng | Sub Eng

Нові коментарі

Нова тема   Відповісти
Останній раз роздавалося drop_plz (2020-09-18)
Автор Повідомлення
Anonymous 







2020-02-09 11:57  
Вірус кохання / Get Over It (2001) 1080p Ukr/Eng | Sub Eng

Вірус кохання / Get Over It (2001) 1080p Ukr/Eng | Sub Eng


Жанр: комедія, мелодрама, музичний
Країна: США



Кінокомпанія: Miramax Internetional
Режисер: Томмі О’Хейвер
Актори: Кірстен Данст, Бен Фостер, Мелісса Сейджміллер, Сиско, Шейн Вест, Колін Хенкс, Зоі Салдана, Міла Куніс, Свузі Кертц

Сюжет:
Випускний рік складався для Берка Ландерса як не можна краще. Він зустрічався з красунею Елісон в яку був закоханий з пелюшок. Всі вважали їх ідеальною парою, і виявилося, що це - любов до гробу. Але в один прекрасний день Берк отримує відмову, і ось вже Елісон бачать в компанії найкрутішого хлопця - Страйкера, а її колишній перебуває в ступорі від відчаю. Всі спроби друзів привести Берка до тями провалюються одна за однією, до тих пір, поки за справу серйозно не береться Келлі, молодша сестра його кращого друга ...


Тривалість: 01:26:25
Якість: 1080p
Відео:
кодек:
розмір кадру: 1920х816
бітрейт: 9329 кб/с

Аудіо # 1:
мова: українська
переклад: двоголосий закадровий
кодек: 2.0
бітрейт: 192 кб/с

Аудіо # 2:
мова: англійська
переклад: оригінал
кодек: E-AC-3 5.1
бітрейт: 640 кб/с

Субтитри:
мова: англійська
тип: програмні (м'які)
формат: *.srt
Info
General
Unique ID : 242026521641282265305995404983524101263 (0xB6149CCF30E27923B4459591665F8C8F)
Complete name : H:\Toloka\2020\Get Over It (2001) 1080p.
Format :
Format version : Version 4
File size : 6.26 GiB
Duration : 1 h 26 min
Overall bit rate : 10.4 Mb/s
Encoded date : UTC 2020-02-09 08:51:49
Writing application : v6.1.0 ('Old Devil') built on Mar 4 2013 09:10:42
Writing library : libebml v1.3.0 + v1.4.0

Video
ID : 1
Format : AVC
Format/Info : Advanced Video Codec
Format profile : [email protected]
Format settings : CABAC / 4 Ref Frames
Format settings, CABAC : Yes
Format settings, RefFrames : 4 frames
Codec ID : V_MPEG4/ISO/AVC
Duration : 1 h 26 min
Bit rate mode : Constant
Bit rate : 9 329 kb/s
Nominal bit rate : 10 000 kb/s
Width : 1 920 pixels
Height : 816 pixels
Display aspect ratio : 2.35:1
Frame rate mode : Constant
Frame rate : 23.976 (24000/1001) FPS
Color space : YUV
Chroma subsampling : 4:2:0
Bit depth : 8 bits
Scan type : Progressive
Bits/(Pixel*Frame) : 0.248
Stream size : 5.63 GiB (90%)
Default : Yes
Forced : No
Color range : Limited
Color primaries : BT.709
Transfer characteristics : BT.709
Matrix coefficients : BT.709
Statistics Tags Issue : v19.0.0 ('Brave Captain') 64-bit 2020-02-08 14:48:30 / v6.1.0 ('Old Devil') built on Mar 4 2013 09:10:42 2020-02-09 08:51:49
FromStats_BitRate : 9532965
FromStats_Duration : 01:26:24.680000000
FromStats_FrameCount : 124308
FromStats_StreamSize : 6178171975

Audio #1
ID : 2
Format : AC-3
Format/Info : Audio Coding 3
Commercial name : Dolby Digital
Codec ID : A_AC3
Duration : 1 h 26 min
Bit rate mode : Constant
Bit rate : 192 kb/s
Channel(s) : 2 channels
Channel layout : L R
Sampling rate : 48.0 kHz
Frame rate : 31.250 FPS (1536 SPF)
Bit depth : 16 bits
Compression mode : Lossy
Stream size : 119 MiB (2%)
Title : UKR (Новий)
Language : Ukrainian
Service kind : Complete Main
Default : Yes
Forced : Yes

Audio #2
ID : 3
Format : E-AC-3
Format/Info : Enhanced AC-3
Commercial name : Dolby Digital Plus
Codec ID : A_EAC3
Duration : 1 h 26 min
Bit rate mode : Constant
Bit rate : 640 kb/s
Channel(s) : 6 channels
Channel layout : L R C LFE Ls Rs
Sampling rate : 48.0 kHz
Frame rate : 31.250 FPS (1536 SPF)
Compression mode : Lossy
Stream size : 396 MiB (6%)
Language : English
Service kind : Complete Main
Default : No
Forced : No
Statistics Tags Issue : v19.0.0 ('Brave Captain') 64-bit 2020-02-08 14:48:30 / v6.1.0 ('Old Devil') built on Mar 4 2013 09:10:42 2020-02-09 08:51:49
FromStats_BitRate : 640000
FromStats_Duration : 01:26:24.736000000
FromStats_FrameCount : 162023
FromStats_StreamSize : 414778880

Text
ID : 4
Format : UTF-8
Codec ID : S_TEXT/UTF8
Codec ID/Info : UTF-8 Plain Text
Title : SDH
Language : English
Default : No
Forced : No
Statistics Tags Issue : v19.0.0 ('Brave Captain') 64-bit 2020-02-08 14:48:30 / v6.1.0 ('Old Devil') built on Mar 4 2013 09:10:42 2020-02-09 08:51:49
FromStats_BitRate : 82
FromStats_Duration : 01:26:02.875000000
FromStats_FrameCount : 1498
FromStats_StreamSize : 53301
Скріншоти










За доріжку подяка п.: Arsenfpu, xslim
Особиста подяка пану denixx за надану матеріальну допомогу на підтримку цього і майбутніх релізів.
Джерело:


Срібний реліз (на рейтинг впливає 50% завантаженого)
 Трекер:    Зареєстрований   

Завантажити / скачати фільм українською



відео для новачків



 Зареєстрований:   2020-02-09 11:57
 Розмір:   6.26 GB 
 Оцінка фільму:   10/10 (Голосів: 3)
   
Інші релізи
   Вірус кохання / Get Over It (2001) AVC 2xUkr/Eng Arsenfpu  2 / 0   1.86 GB   2020-06-20 16:38 
Ваш часовий пояс: GMT + 2 Години

Нова тема   Відповісти