Євробачення 2020. Національний відбір (2020) IPTV 1080p

Нові коментарі

Нова тема   Відповісти
Останній раз роздавалося sergiyko.5 (2020-11-26)
Автор Повідомлення
sergiyko.5 
Забанено
Забанено


З нами з: 25.02.16
Востаннє: 29.10.20
Повідомлень: 3650

2020-02-08 23:39  
Євробачення 2020. Національний відбір (2020) IPTV 1080p


Євробачення 2020. Національний відбір (2020) IPTV 1080p

Жанр: Телевізійне музичне шоу
Країна: Україна
Телеканал: СТБ

Опис:
У Національному конкурсі міжнародного пісенного конкурсу Євробачення-2020 за право представити Україну боролись 16 виконавців, які 8,15 та 22 лютого виступили у прямому ефірі телеканалів СТБ та UA: ПЕРШИЙ.


Тривалість: 02:45:31+03:00:48+02:35:46
Якість: IPTV

Відео: кодек: розмір кадру: 1920 х 1080 бітрейт: 4000 кб/с
Аудіо: мова: українська, російська, англійська кодек: 2.0 бітрейт: 192 кб/с

Дод. інформація: роздача складається з першого та другого півфіналів та фіналу.
Учасники:
Перший півфінал
1. Гурт [O] з піснею "Там, куди я йду";
2. JERRY HEIL - пісня Vegan;
3. Katya Chilly - пісня "Піч";
4. KRUTЬ - пісня "99";
5. GO-A з піснею "Соловей";
6. CLOUDLESS - пісня Drown Me Down;
7. GIO - пісня Feeling so lost;
8. Assol - пісня Save It.

Гість шоу - Melovin

Другий півфінал
1. MOONZOO feat F.M.F Sure
2. FO SHO
3. Еліна Іващенко
4. Олександр Порядинський
5. GARNA
6. KHAYAT
7. David Axelrod
8. TVORCHI
Про файл:
General
Unique ID : 259083407709598685895524726816758957874 (0xC2E9A638895FA761DA2B796BC3C60732)
Complete name : D:\Documents\Torrents\Нацвідбір на Євробачення-2020\01.Нацвідбір на Євробачення-2020.Перший півфінал.1080p.
Format :
Format version : Version 4
File size : 4.88 GiB
Duration : 2 h 45 min
Overall bit rate mode : Variable
Overall bit rate : 4 224 kb/s
Movie name : rip by sergiyko
Encoded date : UTC 2020-02-08 21:33:53
Writing application : v42.0.0 ('Overtime') 64-bit
Writing library : libebml v1.3.10 + v1.5.2

Video
ID : 1
Format : AVC
Format/Info : Advanced Video Codec
Format profile : [email protected]
Format settings : CABAC / 3 Ref Frames
Format settings, CABAC : Yes
Format settings, Reference fra : 3 frames
Codec ID : V_MPEG4/ISO/AVC
Duration : 2 h 45 min
Bit rate mode : Variable
Bit rate : 4 030 kb/s
Maximum bit rate : 4 799 kb/s
Width : 1 920 pixels
Height : 1 080 pixels
Display aspect ratio : 16:9
Frame rate mode : Constant
Frame rate : 25.000 FPS
Color space : YUV
Chroma subsampling : 4:2:0
Bit depth : 8 bits
Scan type : Progressive
Bits/(Pixel*Frame) : 0.078
Stream size : 4.66 GiB (95%)
Title : Нацвідбір на Євробачення-2020.Перший півфінал
Language : Ukrainian
Default : Yes
Forced : No

Audio
ID : 2
Format : AC-3
Format/Info : Audio Coding 3
Commercial name : Dolby Digital
Codec ID : A_AC3
Duration : 2 h 45 min
Bit rate mode : Constant
Bit rate : 192 kb/s
Channel(s) : 2 channels
Channel layout : L R
Sampling rate : 48.0 kHz
Frame rate : 31.250 FPS (1536 SPF)
Compression mode : Lossy
Delay relative to video : -120 ms
Stream size : 227 MiB (5%)
Language : Ukrainian
Service kind : Complete Main
Default : Yes
Forced : No

Menu
00:00:00.000 : :Chapter 1
00:42:06.280 : :Chapter 2
01:26:39.800 : :Chapter 3
02:14:01.600 : :Chapter 4
02:31:52.480 : :Chapter 5
Скріншоти:


Робота з релізом: sergiyko


Золотий реліз (завантажене не впливає на рейтинг)
 Трекер:    Зареєстрований   

Завантажити / скачати передачу українською



відео для новачків



 Зареєстрований:   2020-02-23 08:29
 Розмір:   14.95 GB 
 Оцінка передачі:   7/10 (Голосів: 16)
   
antik_2008 
Релізер і модератор відео


З нами з: 20.10.08
Востаннє: 26.11.20
Повідомлень: 4359

2020-02-09 02:55  
Доволі цікаво! Подивимося через тиждень Happy sergiyko.5 Дякую!
sergiyko.5 
Забанено
Забанено


З нами з: 25.02.16
Востаннє: 29.10.20
Повідомлень: 3650

2020-02-16 00:36  
Додав другий півфінал.
antik_2008 
Релізер і модератор відео


З нами з: 20.10.08
Востаннє: 26.11.20
Повідомлень: 4359

2020-02-17 18:44  
Другий півфінал гірший
sergiyko.5 
Забанено
Забанено


З нами з: 25.02.16
Востаннє: 29.10.20
Повідомлень: 3650

2020-02-23 08:30  
Додав фінал.
Ваш часовий пояс: GMT + 2 Години

Нова тема   Відповісти