21 міст / 21 Bridges (2019) UHD 4K 2160p HDR H.265 Ukr/Eng | Sub Eng

Нові коментарі

Нова тема   Відповісти
Автор Повідомлення
Anonymous 







2020-02-08 23:19  
21 міст / 21 Bridges (2019) UHD 4K 2160p HDR H.265 Ukr/Eng | Sub Eng


«Від нього не втекти»



Жанр: бойовик, драма, кримінал, трилер
Країна: США



Кінокомпанія: AGBO, Huayi Brothers, MWM Studios
Режисер: Брайан Кірк
Актори: Чедвік Боузман, Сієнна Міллер,Тейлор Кітч, Дж. К. Сіммонс, Кіт Девід, Стівен Джеймс, Крістіан Айзіа

Сюжет:
Знаменитий детектив нью-йоркської поліції стає учасником масштабної операції з полювання на вбивць двох поліцейських. Коли ситуація загострюється, влада вирішує вжити надзвичайних заходів, щоб не дати вбивцям піти з Мангеттена, — вперше в історії перекрити для руху усі 21 міст острова. Тепер, коли Мангеттен заблокований на в'їзд та виїзд, герою доведеться самостійно з'ясувати, хто є хто в цьому місті.


Тривалість: 01:39:32
Якість: UHD 4K 2160p

Відео:
кодек: H.265 (HEVC)
розмір кадру: 3840x2160
бітрейт: 21600 кб/с
бітова глибина: 10 біт

Аудіо # 1:
мова: українська
переклад: професійний дубльований
кодек: 2.0 (стерео)
бітрейт: 192 кб/с

Аудіо # 2:
мова: англійська
переклад: оригінал
кодек: -HD Master 5.1
бітрейт: 3577 кб/с

Субтитри: (Full, SDH)
мова: англійська
тип: програмні (м'які)
формат: *.srt
Info
Код:
General
Complete name                            : 21 Bridges (2019) 2160p [Ukr, Eng].
Format                                   :
Format version                           : Version 4
File size                                : 17.6 GiB
Duration                                 : 1 h 39 min
Overall bit rate mode                    : Variable
Overall bit rate                         : 25.4 Mb/s
Encoded date                             : UTC 2020-02-08 20:21:52
Writing application                      : v30.1.0 ('Forever And More') 64-bit
Writing library                          : libebml v1.3.6 + v1.4.9
Cover                                    : Yes
Attachments                              : cover.jpg

Video
ID                                       : 1
Format                                   : HEVC
Format/Info                              : High Efficiency Video Coding
Format profile                           : Main [email protected]@High
Codec ID                                 : V_MPEGH/ISO/HEVC
Duration                                 : 1 h 39 min
Bit rate                                 : 21.6 Mb/s
Width                                    : 3 840 pixels
Height                                   : 2 160 pixels
Display aspect ratio                     : 16:9
Frame rate mode                          : Constant
Frame rate                               : 23.976 (24000/1001) FPS
Color space                              : YUV
Chroma subsampling                       : 4:2:0
Bit depth                                : 10 bits
Bits/(Pixel*Frame)                       : 0.109
Stream size                              : 15.0 GiB (85%)
Title                                    : 21_BRIDGE_2019_WEB-DL_2160p_HDR-BLUEBIRD
Default                                  : Yes
Forced                                   : No
Color range                              : Limited
Color primaries                          : BT.709
Transfer characteristics                 : BT.709
Matrix coefficients                      : BT.709

Audio #1
ID                                       : 2
Format                                   : AC-3
Format/Info                              : Audio Coding 3
Commercial name                          : Dolby Digital
Codec ID                                 : A_AC3
Duration                                 : 1 h 39 min
Bit rate mode                            : Constant
Bit rate                                 : 192 kb/s
Channel(s)                               : 2 channels
Channel layout                           : L R
Sampling rate                            : 48.0 kHz
Frame rate                               : 31.250 FPS (1536 SPF)
Bit depth                                : 16 bits
Compression mode                         : Lossy
Stream size                              : 137 MiB (1%)
Title                                    : , 2 ch, 192 Кбт/с
Language                                 : Ukrainian
Service kind                             : Complete Main
Default                                  : Yes
Forced                                   : No

Audio #2
ID                                       : 3
Format                                   : XLL
Format/Info                              : Digital Theater Systems
Commercial name                          : -HD Master Audio
Codec ID                                 : A_DTS
Duration                                 : 1 h 39 min
Bit rate mode                            : Variable
Bit rate                                 : 3 577 kb/s
Channel(s)                               : 6 channels
Channel layout                           : C L R Ls Rs LFE
Sampling rate                            : 48.0 kHz
Frame rate                               : 93.750 FPS (512 SPF)
Bit depth                                : 24 bits
Compression mode                         : Lossless
Stream size                              : 2.49 GiB (14%)
Title                                    : -MA, 6 ch, 3577 Кбт/с
Language                                 : English
Default                                  : No
Forced                                   : No

Text #1
ID                                       : 4
Format                                   : UTF-8
Codec ID                                 : S_TEXT/UTF8
Codec ID/Info                            : UTF-8 Plain Text
Duration                                 : 1 h 29 min
Bit rate                                 : 56 b/s
Count of elements                        : 1113
Stream size                              : 37.2 KiB (0%)
Title                                    : Full-length
Language                                 : English
Default                                  : No
Forced                                   : No

Text #2
ID                                       : 5
Format                                   : UTF-8
Codec ID                                 : S_TEXT/UTF8
Codec ID/Info                            : UTF-8 Plain Text
Duration                                 : 1 h 30 min
Bit rate                                 : 62 b/s
Count of elements                        : 1275
Stream size                              : 41.4 KiB (0%)
Title                                    : SDH
Language                                 : English
Default                                  : No
Forced                                   : No

Menu
00:00:00.000                             : ru:1
00:02:55.000                             : ru:2
00:12:20.000                             : ru:3
00:23:07.000                             : ru:4
00:34:27.000                             : ru:5
00:43:41.000                             : ru:6
00:53:41.000                             : ru:7
01:03:31.000                             : ru:8
01:11:31.000                             : ru:9
01:18:48.000                             : ru:10
01:32:11.000                             : ru:11
Скріншоти




Джерело:
Особиста оцінка: 8 - мені сподобалося
Увага! Перед завантаженням переконайтесь, що ваш пристрій відтворення (та/або ПЗ) підтримує H.265 (HEVC)


 Трекер:    Зареєстрований   

Завантажити / скачати фільм українською



відео для новачків



 Зареєстрований:   2020-02-08 23:19
 Розмір:   17.63 GB 
 Оцінка фільму:   9.6/10 (Голосів: 15)
   
Інші релізи
   21 міст / 21 Bridges (2019) 1080p H.265 Ukr/Eng | Sub Eng -Star-Lord-  35 / 1   6.37 GB   2020-02-11 00:20 
   21 міст / 21 Bridges (2019) Remux 1080p Ukr/Eng | Sub Eng antik_2008  30 / 0   24.88 GB   2020-02-09 23:36 
   21 міст / 21 Bridges (2019) AVC Ukr/Eng | Sub Eng 11FrYkT  81 / 3   1.72 GB   2020-02-09 23:17 
   21 міст / 21 Bridges (2019) 720p Ukr/Eng | Sub Eng antik_2008  36 / 1   4.39 GB   2020-02-09 23:16 
   21 міст / 21 Bridges (2019) 1080p Ukr/Eng | Sub Eng antik_2008  51 / 2   10.72 GB   2020-02-09 23:15 
   21 міст / 21 Bridges (2019) Ukr/Eng antik_2008  71 / 2   1.95 GB   2020-02-09 23:13 
Ваш часовий пояс: GMT + 2 Години

Нова тема   Відповісти