Того / Togo (2019) 4K 2160p UHD HDR H.265 Ukr/Eng

Нові коментарі

Нова тема   Відповісти
Автор Повідомлення
Documentalist 
Забанено
Забанено


З нами з: 04.06.17
Востаннє: 21.03.20
Повідомлень: 107

2020-02-09 00:02  
Того / Togo (2019) 4K 2160p UHD HDR H.265 Ukr/Eng

Того / Togo (2019)  4K 2160p UHD HDR H.265 Ukr/Eng


Озвучено студією сайту:



Ролі озвучили: Євген Малуха, Роман Чупіс та Ольга Мотрич.

Жанр: драма
Країна: США



Кінокомпанія: Disney+
Режисер: Еріксон Кор
Актори: Віллем Дефо, Джуліанна Ніколсон, Крістофер Хейєрдал, Річард Дормер, Едріан Дорваль, Майкл Грейес та інші

Сюжет:
Історія про собаку Того, лідера упряжки Леонардо Сеппали. Під час Гонки Милосердя 1925 року або Гонка з доставки сироватки до Нома вони здолали найбільшу та найскладнішу дистанцію серед всіх хто брав в ній участь. Таким чином було врятувано десятки дитячих життів від дифтерії.


Тривалість: 01:53:01
Якість:
Відео:
кодек: H.265 (HEVC)
розмір кадру: 3840х1920
бітрейт: 19,4 Мб/с
бітова глибина: 10 біт
кольоровий простір: BT.2020 (HDR)
Увага! Перед завантаженням переконайтесь, що ваш пристрій відтворення (та/або ПЗ) підтримує H.265 (HEVC)

Аудіо:
мова: українська
переклад: професійне багатоголосе закадрове | "simpsonsua.tv"
кодек: 5.1
бітрейт: 448 кб/с

Аудіо: # 2:
мова: англійська
переклад: оригінал
кодек: E- 5.1
бітрейт: 768 кб/с

Субтитри:
мова: англійська
тип: програмні (м'які)
формат: *.srt
Info
Format :
Format version : Version 4
File size : 16.3 GiB
Duration : 1 h 53 min
Overall bit rate : 20.6 Mb/s
Movie name : Того (Togo) 2019 UHD HDR 2160p [Hurtom]
Encoded date : UTC 2020-02-08 18:36:12
Writing application : v7.8.0 ('River Man') 32bit built on Mar 27 2015 16:18:02
Writing library : libebml v1.3.1 + v1.4.2
Cover : Yes
Attachments : Cover.png

Video
ID : 1
Format : HEVC
Format/Info : High Efficiency Video Coding
Format profile : Main [email protected]@High
Codec ID : V_MPEGH/ISO/HEVC
Duration : 1 h 53 min
Bit rate : 19.4 Mb/s
Width : 3 840 pixels
Height : 1 920 pixels
Display aspect ratio : 2.000
Frame rate mode : Constant
Frame rate : 23.976 (24000/1001) FPS
Color space : YUV
Chroma subsampling : 4:2:0
Bit depth : 10 bits
Bits/(Pixel*Frame) : 0.110
Stream size : 15.3 GiB (94%)
Title : Того (Togo) 2019 UHD HDR 2160p [Hurtom]
Writing library : x265 3.2+23-52135ffd9bcd:[Windows][MSVC 1924][64 bit] 10bit
Encoding settings : cpuid=1111039 / frame-threads=4 / numa-pools=28,0 / wpp / no-pmode / no-pme / no-psnr / no-ssim / log-level=2 / input-csp=1 / input-res=3840x1920 / interlace=0 / total-frames=0 / level-idc=51 / high-tier=1 / uhd-bd=0 / ref=5 / no-allow-non-conformance / repeat-headers / annexb / no-aud / no-hrd / info / hash=0 / no-temporal-layers / open-gop / min-keyint=23 / keyint=250 / gop-lookahead=0 / bframes=8 / b-adapt=2 / b-pyramid / bframe-bias=0 / rc-lookahead=40 / lookahead-slices=0 / scenecut=40 / hist-scenecut=0 / radl=0 / no-splice / no-intra-refresh / ctu=64 / min-cu-size=8 / no-rect / no-amp / max-tu-size=32 / tu-inter-depth=3 / tu-intra-depth=3 / limit-tu=0 / rdoq-level=1 / dynamic-rd=0.00 / no-ssim-rd / signhide / no-tskip / nr-intra=0 / nr-inter=0 / no-constrained-intra / strong-intra-smoothing / max-merge=5 / limit-refs=0 / no-limit-modes / me=3 / subme=4 / merange=57 / temporal-mvp / no-frame-dup / no-hme / weightp / weightb / no-analyze-src-pics / deblock=0:0 / no-sao / no-sao-non-deblock / rd=6 / selective-sao=0 / no-early-skip / rskip / no-fast-intra / no-tskip-fast / no-cu-lossless / b-intra / no-splitrd-skip / rdpenalty=0 / psy-rd=4.00 / psy-rdoq=8.00 / no-rd-refine / no-lossless / cbqpoffs=0 / crqpoffs=0 / rc=crf / crf=12.0 / qcomp=0.60 / qpstep=4 / stats-write=0 / stats-read=0 / vbv-maxrate=160000 / vbv-bufsize=160000 / vbv-init=0.9 / crf-max=0.0 / crf-min=0.0 / ipratio=1.40 / pbratio=1.30 / aq-mode=2 / aq-strength=1.00 / cutree / zone-count=0 / no-strict-cbr / qg-size=32 / no-rc-grain / qpmax=69 / qpmin=0 / no-const-vbv / sar=0 / overscan=0 / videoformat=5 / range=0 / colorprim=9 / transfer=16 / colormatrix=9 / chromaloc=0 / display-window=0 / cll=0,0 / min-luma=0 / max-luma=1023 / log2-max-poc-lsb=8 / vui-timing-info / vui-hrd-info / slices=1 / no-opt-qp-pps / no-opt-ref-list-length-pps / no-multi-pass-opt-rps / scenecut-bias=0.05 / hist-threshold=0.01 / no-opt-cu-delta-qp / no-aq-motion / hdr / hdr-opt / no-dhdr10-opt / no-idr-recovery-sei / analysis-reuse-level=5 / scale-factor=0 / refine-intra=0 / refine-inter=0 / refine-mv=1 / refine-ctu-distortion=0 / no-limit-sao / ctu-info=0 / no-lowpass-dct / refine-analysis-type=0 / copy-pic=1 / max-ausize-factor=1.0 / no-dynamic-refine / no-single-sei / no-hevc-aq / no-svt / no-field / qp-adaptation-range=1.00 / no-scenecut-aware-qp
Language : Ukrainian
Default : Yes
Forced : No
Color range : Limited
Color primaries : BT.2020
Transfer characteristics : PQ
Matrix coefficients : BT.2020 non-constant

Audio #1
ID : 2
Format : AC-3
Format/Info : Audio Coding 3
Commercial name : Dolby Digital
Codec ID : A_AC3
Duration : 1 h 53 min
Bit rate mode : Constant
Bit rate : 448 kb/s
Channel(s) : 6 channels
Channel layout : L R C LFE Ls Rs
Sampling rate : 48.0 kHz
Frame rate : 31.250 FPS (1536 SPF)
Compression mode : Lossy
Stream size : 362 MiB (2%)
Title : simpsonsua.tv
Language : Ukrainian
Service kind : Complete Main
Default : Yes
Forced : Yes

Audio #2
ID : 3
Format : E-AC-3 JOC
Format/Info : Enhanced AC-3 with Joint Object Coding
Commercial name : Dolby Digital Plus with Dolby Atmos
Codec ID : A_EAC3
Duration : 1 h 53 min
Bit rate mode : Constant
Bit rate : 768 kb/s
Channel(s) : 6 channels
Channel layout : L R C LFE Ls Rs
Sampling rate : 48.0 kHz
Frame rate : 31.250 FPS (1536 SPF)
Compression mode : Lossy
Stream size : 621 MiB (4%)
Title : Орігінал
Language : English
Service kind : Complete Main
Default : No
Forced : No
Complexity index : 16
Number of dynamic objects : 15
Bed channel count : 1 channel
Bed channel configuration : LFE

Text #1
ID : 4
Format : UTF-8
Codec ID : S_TEXT/UTF8
Codec ID/Info : UTF-8 Plain Text
Duration : 1 h 41 min
Bit rate : 34 b/s
Count of elements : 881
Stream size : 25.3 KiB (0%)
Title : English
Language : English
Default : No
Forced : No

Text #2
ID : 5
Format : UTF-8
Codec ID : S_TEXT/UTF8
Codec ID/Info : UTF-8 Plain Text
Duration : 1 h 42 min
Bit rate : 37 b/s
Count of elements : 1051
Stream size : 28.3 KiB (0%)
Title : English [SDH]
Language : English
Default : No
Forced : No
Скріншоти

Перегляд 4K HDR-контенту на ПК, керівництво з експлуатації

Для перегляду HDR-контенту необхідний телевізор з підтримкою HDR. Просто запишіть на usb-накопичувач викачане відео і встановіть його в ваш ТВ. На звичайних дисплеях зображення буде виглядати неконтрастним і знебарвленим.

Вирішення цієї проблеми, зараз можливо на PC під ОС Windows, використовуючи плеєр, який підтримує висновок зображення через рендер madvr (http://madvr.com), який може виконувати програмну конверсію, у кольоровий простір і гаму REC.709.

Ми рекомендуємо Media Player Classic Home Cinema.

Після встановлення рекомендованих плеєрів, необхідно окремо встановити madvr.
Для цього скачайте з сайту архів, розпакуйте його в зручне місце і запустіть install.bat від облікового запису адміністратора.
Після установки, папку з вмістом не видаляти!
Якщо папку необхідно перенести в інше місце, то після перенесення необхідно знову запустити install.bat.
Для того, щоб зображення виводилося за допомогою madvr, його необхідно вибрати в налаштуваннях плеєра:


Авторський реліз (завантажувати можна без реєстрації)
 Трекер:    Зареєстрований   

Завантажити / скачати фільм українською



відео для новачків



 Зареєстрований:   2020-02-09 00:02
 Розмір:   16.27 GB 
 Оцінка фільму:   9.7/10 (Голосів: 26)
   
Інші релізи
   Тоґо / Togo (2019) 720p Ukr/Eng simpsonsua  25 / 0   4.3 GB   2020-01-08 12:28 
   Тоґо / Togo (2019) AVC Ukr/Eng simpsonsua  79 / 8   1.83 GB   2020-01-08 02:52 
   Тоґо / Togo (2019) antik_2008  54 / 1   1.91 GB   2020-01-08 02:01 
   Тоґо / Togo (2019) 1080p Ukr/Eng simpsonsua  76 / 0   5.11 GB   2020-01-07 23:16 
RVACH 
Новенький


З нами з: 24.09.16
Востаннє: 23.09.20
Повідомлень: 11

2020-02-22 13:10  
БОМБА!!!
Artistus 
Частий відвідувач


З нами з: 26.12.10
Востаннє: 16.09.20
Повідомлень: 26

2020-02-24 21:19  
Якщо в мене монітор з гамою Adobe RGB, як через MadVR конвертувати в гаму монітора?
fwk 
Частий відвідувач


З нами з: 06.07.10
Востаннє: 31.08.20
Повідомлень: 35

2020-02-29 20:35  
Фільм бомбезний. Щодо якості - якщо подивитесь в FullHD замість UltraHD - не багато втратите.
y.kushnir 
Новенький


З нами з: 23.01.16
Востаннє: 13.09.20
Повідомлень: 10

2020-03-15 17:13  
Цікавий сімейний фільм, а цуцик просто бомбезний
Ваш часовий пояс: GMT + 2 Години

Нова тема   Відповісти