На межі (Сезон 1, серії 1-8) / The Brink (Season 1, episodes 1-8) (2015) AVC Ukr/Eng | Sub Eng

Нові коментарі

Нова тема   Відповісти
Автор Повідомлення
eneyida.tv 
Новенький


З нами з: 27.09.19
Востаннє: 24.02.20
Повідомлень: 16

2020-02-08 19:10  
На межі (Сезон 1, серії 1-8) / The Brink (Season 1, episodes 1-8) (2015) AVC Ukr/Eng | Sub Eng

На межі (Сезон 1, серії 1-8) / The Brink (Season 1, episodes 1-8) (2015) AVC Ukr/Eng | Sub Eng


Жанр: комедія
Країна: США


Кінокомпанія / телеканал: Home Box Office (HBO), Jerry Weintraub Productions, Everyman Pictures
Режисер: Майкл Леманн, Адам Бернштейн, Джеймс М. Муро
Актори/ролі озвучують: Тім Робінс, Джек Блeк, Пабло Шрайбер, Аасіф Мандві, Мерібет Монро, Ерік Ладен, Джеффрі Пірсон, Есай Моралес, Ікбал Теба, Ерік Аварі

Сюжет:
Уряд і армія США намагаються запобігти Третій світовій війні, в той час як у світі панує геополітична криза.


Тривалість: 1 серія: ~ 30:00 хв. (цілком серій: 10)
Перелік серій
1. Pilot
2. Half-Cocked
3. Baghdad My
4. I'll Never Be Batman
5. Swim, Shmuley, Swim
6. Tweet Tweet Tweet
7. Sticky Wicket
8. Who's Grover Cleveland?
9. Just a Little Crazy Talk
10. There Will Be Consequences
Якість: AVC
Відео:
кодек:
розмір кадру: 1024 х 574
бітрейт: 1800 кб/с

Аудіо # 1:
мова: українська
переклад: багатоголосий закадровий | DniproFilm
кодек: 5.1
бітрейт: 384 кб/с

Аудіо # 2:
мова: англійська
переклад: оригінал
кодек: 5.1
бітрейт: 384 кб/с

Субтитри: # 1 - на діалоги іншими мовами, ніж англійська
мова: англійська
тип: вбудовані (жорсткі)

Субтитри: # 2
мова: англійська
тип: програмні (м'які)
формат: *.srt
Info
Код:
General
Unique ID                                : 27094465323001710642471990445579183778 (0x146234470F1552647BACEEC10FA826A2)
Complete name                            : The Brink - S01E01 (2015) AVC [Ukr.Eng] [eneyida.tv].
Format                                   :
Format version                           : Version 4
File size                                : 624 MiB
Duration                                 : 33mn 23s
Overall bit rate                         : 2 612 Kbps
Encoded date                             : UTC 2020-02-08 15:51:44
Writing application                      : v43.0.0 ('The Quartermaster') 64-bit
Writing library                          : libebml v1.3.10 + v1.5.2

Video
ID                                       : 1
Format                                   : AVC
Format/Info                              : Advanced Video Codec
Format profile                           : [email protected]
Format settings                          : CABAC / 10 Ref Frames
Format settings, CABAC                   : Yes
Format settings, ReFrames                : 10 frames
Codec ID                                 : V_MPEG4/ISO/AVC
Duration                                 : 33mn 23s
Bit rate                                 : 1 842 Kbps
Width                                    : 1 024 pixels
Height                                   : 574 pixels
Display aspect ratio                     : 16:9
Frame rate mode                          : Constant
Frame rate                               : 23.976 (24000/1001) fps
Color space                              : YUV
Chroma subsampling                       : 4:2:0
Bit depth                                : 8 bits
Scan type                                : Progressive
Bits/(Pixel*Frame)                       : 0.131
Stream size                              : 440 MiB (71%)
Writing library                          : core 157 r2935 545de2f
Encoding settings                        : cabac=1 / ref=10 / deblock=1:0:0 / analyse=0x1:0x111 / me=umh / subme=9 / psy=1 / psy_rd=1.00:0.00 / mixed_ref=1 / me_range=16 / chroma_me=1 / trellis=1 / 8x8dct=0 / cqm=0 / deadzone=21,11 / fast_pskip=1 / chroma_qp_offset=-2 / threads=12 / lookahead_threads=1 / sliced_threads=0 / nr=0 / decimate=1 / interlaced=0 / bluray_compat=0 / constrained_intra=0 / bframes=8 / b_pyramid=2 / b_adapt=1 / b_bias=0 / direct=1 / weightb=1 / open_gop=0 / weightp=2 / keyint=240 / keyint_min=24 / scenecut=40 / intra_refresh=0 / rc_lookahead=40 / rc=crf / mbtree=1 / crf=18.0 / qcomp=0.60 / qpmin=0 / qpmax=69 / qpstep=4 / vbv_maxrate=50000 / vbv_bufsize=62500 / crf_max=0.0 / nal_hrd=none / filler=0 / ip_ratio=1.40 / aq=1:1.00
Default                                  : Yes
Forced                                   : No
Color range                              : Limited
Color primaries                          : BT.709
Transfer characteristics                 : BT.709
Matrix coefficients                      : BT.709

Audio #1
ID                                       : 2
Format                                   : AC-3
Format/Info                              : Audio Coding 3
Commercial name                          : Dolby Digital
Codec ID                                 : A_AC3
Duration                                 : 33mn 23s
Bit rate mode                            : Constant
Bit rate                                 : 384 Kbps
Channel(s)                               : 6 channels
Channel layout                           : L R C LFE Ls Rs
Sampling rate                            : 48.0 KHz
Frame rate                               : 31.250 fps (1536 SPF)
Compression mode                         : Lossy
Stream size                              : 91.7 MiB (15%)
Title                                    : MVO [DniproFilm] for [eneyida.tv]
Language                                 : Ukrainian
Service kind                             : Complete Main
Default                                  : Yes
Forced                                   : No

Audio #2
ID                                       : 3
Format                                   : AC-3
Format/Info                              : Audio Coding 3
Commercial name                          : Dolby Digital
Codec ID                                 : A_AC3
Duration                                 : 33mn 23s
Bit rate mode                            : Constant
Bit rate                                 : 384 Kbps
Channel(s)                               : 6 channels
Channel layout                           : L R C LFE Ls Rs
Sampling rate                            : 48.0 KHz
Frame rate                               : 31.250 fps (1536 SPF)
Compression mode                         : Lossy
Stream size                              : 91.7 MiB (15%)
Title                                    : Original
Language                                 : English
Service kind                             : Complete Main
Default                                  : No
Forced                                   : No

Text
ID                                       : 4
Format                                   : UTF-8
Codec ID                                 : S_TEXT/UTF8
Codec ID/Info                            : UTF-8 Plain Text
Duration                                 : 33mn 13s
Bit rate                                 : 150 bps
Count of elements                        : 739
Stream size                              : 36.7 KiB (0%)
Title                                    : Full
Language                                 : English
Default                                  : No
Forced                                   : No



Озвучено студією DniproFilm на замовлення eneyida.tv
Особиста оцінка: 10 - без зайвих вагань рекомендую всім!

Торрент-файл оновлено 24.02.2020. Додано 8 серію.


Авторський реліз (завантажувати можна без реєстрації)
 Трекер:    Зареєстрований   

Завантажити / скачати серіал українською



відео для новачків



 Зареєстрований:   2020-02-24 19:05
 Розмір:   4 GB 
 Оцінка серіалу:   8.5/10 (Голосів: 19)
   
UAbomber 
Новенький


З нами з: 03.01.20
Востаннє: 25.02.20
Повідомлень: 20

2020-02-09 00:07  
Рекомендую
eneyida.tv 
Новенький


З нами з: 27.09.19
Востаннє: 24.02.20
Повідомлень: 16

2020-02-14 21:29  
Додано 4 серію.
eneyida.tv 
Новенький


З нами з: 27.09.19
Востаннє: 24.02.20
Повідомлень: 16

2020-02-16 17:53  
Додано 5 серію.
rev123 
Свій


З нами з: 05.04.13
Востаннє: 25.02.20
Повідомлень: 58

2020-02-17 01:29  
Це не 18+ і не 21+ а це Пекло+!
eneyida.tv 
Новенький


З нами з: 27.09.19
Востаннє: 24.02.20
Повідомлень: 16

2020-02-18 20:24  
Додано 6 серію. 
eneyida.tv 
Новенький


З нами з: 27.09.19
Востаннє: 24.02.20
Повідомлень: 16

2020-02-22 17:13  
Додано 7 серію. 
murrrchik 
Свій


З нами з: 22.07.10
Востаннє: 26.02.20
Повідомлень: 61

2020-02-22 20:12  
Серіал реально дуже смішний. Я розумію, що інколи вони переходять межу в деяких моментах, але від цього тема не стає менш актуальною. Яка тема? А така, що весь офіціоз, вся політика - все це не містить у собі нічого високого і духовного (звісно, це не новина), а переслідує всього лиш особисту вигоду.
P.S.
Дякую за реліз! Happy

eneyida.tv 
Новенький


З нами з: 27.09.19
Востаннє: 24.02.20
Повідомлень: 16

2020-02-24 19:07  
Додано 8 серію. 
rev123 
Свій


З нами з: 05.04.13
Востаннє: 25.02.20
Повідомлень: 58

2020-02-25 12:26  
Оттакий здеградований світ дипломатії... Проте доба постісторизму минає. Скоро побачимо відродження дипломатії воєн.

Додано через 1 хвилину 59 секунд:

Глибокодонний гумор може "пробити на ха-ха", проте за пробите моральне днище вони заслуговують на оцінку 0 з 10.

Ваш часовий пояс: GMT + 2 Години

Нова тема   Відповісти