Віллі та круті тачки / Wheely (2018) 1080p Ukr/Eng

Нові коментарі

Нова тема   Відповісти
Автор Повідомлення
sergiyko.5 
VIP


З нами з: 25.02.16
Востаннє: 24.02.20
Повідомлень: 2949

2020-02-08 14:41  
Віллі та круті тачки / Wheely (2018) 1080p Ukr/Eng


Віллі та круті тачки / Wheely (2018) 1080p Ukr/Eng

Жанр: пригоди, комедія, сімейний
Країна: Малайзія
Кінокомпанія: KRU Studios, Kartun Studios
Режисер: Ісрі Абдул Халім

Сюжет:
Віллі - тричі чемпіон з вуличних перегонів у Гаскет-Сіті, готується до головного випробування в його житті. Весь світ у його колесі! Але в вирішальному заїзді він не впорався з керуванням і впав у глибоку ріку. Віллі мав стати звичайним таксистом і лише іноді змагається зі звичайними міськими машинами. Та після неочікуваного зіткнення з прекрасною італійською машинкою Беллой він починає розуміти, що окрім швидкості в житті є більш важливі речі...




Тривалість: 01:30:13
Якість:

Відео: кодек: h264 розмір кадру: 1920 х 1080 бітрейт: 7100 кб/с
Аудіо: мова: українська переклад: багатоголосий закадровий кодек: 2.0 бітрейт: 192 кб/с
Озвучення:
Аудіо: мова: англійська переклад: оригінал кодек: 5.1 бітрейт: 1509 кб/с
Про файл:
General
Unique ID : 152795467663166459773123631326479084000 (0x72F3562EF3705D408398A3FBE9B969E0)
Complete name : D:\Documents\Torrents\MULTSER_2\Wheely.2018.1080p..Ukr.Eng.
Format :
Format version : Version 4
File size : 5.59 GiB
Duration : 1 h 30 min
Overall bit rate : 8 868 kb/s
Movie name : Wheely 2018 by sergiyko
Encoded date : UTC 2020-02-08 12:35:02
Writing application : v42.0.0 ('Overtime') 64-bit
Writing library : libebml v1.3.10 + v1.5.2

Video
ID : 1
Format : AVC
Format/Info : Advanced Video Codec
Format profile : [email protected]
Format settings : CABAC / 4 Ref Frames
Format settings, CABAC : Yes
Format settings, Reference fra : 4 frames
Codec ID : V_MPEG4/ISO/AVC
Duration : 1 h 30 min
Bit rate : 7 172 kb/s
Width : 1 920 pixels
Height : 1 080 pixels
Display aspect ratio : 16:9
Frame rate mode : Constant
Frame rate : 24.000 FPS
Color space : YUV
Chroma subsampling : 4:2:0
Bit depth : 8 bits
Scan type : Progressive
Bits/(Pixel*Frame) : 0.144
Stream size : 4.52 GiB (81%)
Title : Wheely 2018
Writing library : core 157 r2969 d4099dd
Encoding settings : cabac=1 / ref=4 / deblock=1:0:0 / analyse=0x3:0x113 / me=umh / subme=8 / psy=1 / psy_rd=1.00:0.00 / mixed_ref=1 / me_range=16 / chroma_me=1 / trellis=2 / 8x8dct=1 / cqm=0 / deadzone=21,11 / fast_pskip=0 / chroma_qp_offset=-2 / threads=34 / lookahead_threads=5 / sliced_threads=0 / nr=0 / decimate=1 / interlaced=0 / bluray_compat=0 / constrained_intra=0 / bframes=3 / b_pyramid=2 / b_adapt=1 / b_bias=0 / direct=1 / weightb=1 / open_gop=0 / weightp=2 / keyint=250 / keyint_min=24 / scenecut=40 / intra_refresh=0 / rc_lookahead=50 / rc=2pass / mbtree=1 / bitrate=7172 / ratetol=1.0 / qcomp=0.60 / qpmin=0 / qpmax=69 / qpstep=4 / cplxblur=20.0 / qblur=0.5 / ip_ratio=1.40 / aq=1:1.00
Language : English
Default : Yes
Forced : No

Audio #1
ID : 2
Format : AC-3
Format/Info : Audio Coding 3
Commercial name : Dolby Digital
Codec ID : A_AC3
Duration : 1 h 29 min
Bit rate mode : Constant
Bit rate : 192 kb/s
Channel(s) : 2 channels
Channel layout : L R
Sampling rate : 48.0 kHz
Frame rate : 31.250 FPS (1536 SPF)
Compression mode : Lossy
Stream size : 123 MiB (2%)
Title : MOV | К1
Language : Ukrainian
Service kind : Complete Main
Default : Yes
Forced : Yes

Audio #2
ID : 3
Format :
Format/Info : Digital Theater Systems
Codec ID : A_DTS
Duration : 1 h 29 min
Bit rate mode : Constant
Bit rate : 1 509 kb/s
Channel(s) : 6 channels
Channel layout : C L R Ls Rs LFE
Sampling rate : 48.0 kHz
Frame rate : 93.750 FPS (512 SPF)
Bit depth : 24 bits
Compression mode : Lossy
Stream size : 970 MiB (17%)
Title : Original
Language : English
Default : No
Forced : No

Menu
00:00:00.000 : en:00:00:00.000
00:08:53.000 : en:00:08:53.000
00:15:26.375 : en:00:15:26.375
00:21:17.708 : en:00:21:17.708
00:28:27.208 : en:00:28:27.208
00:36:49.042 : en:00:36:49.042
00:45:39.500 : en:00:45:39.500
00:53:42.958 : en:00:53:42.958
01:00:29.500 : en:01:00:29.500
01:07:09.125 : en:01:07:09.125
01:18:10.000 : en:01:18:10.000
01:23:56.375 : en:01:23:56.375
Скріншоти:


Запис/зведення: sergiyko


 Трекер:    Зареєстрований   

Завантажити / скачати мультфільм українською



відео для новачків



 Зареєстрований:   2020-02-09 13:47
 Розмір:   5.59 GB 
 Оцінка мультфільму:   8.7/10 (Голосів: 6)
   
Інші релізи
   Віллі та круті тачки / Wheely (2018) AVC sergiyko.5  11 / 3   864 MB   2020-02-10 14:11 
Panther2214 
Попереджень: 1
Попереджень: 1 


З нами з: 29.09.17
Востаннє: 22.02.20
Повідомлень: 392

2020-02-08 16:33  
Виправте опис:

Чемпіон по вуличним гонкам - чемпіон з вуличних перегонів...
З управлінням - з керуванням...
У глубоку ріку - у глибоку ріку...
Ліше - лише...
Змагаєтьмя - змагається...

xslim 
Відео Гуртом - фільмокрай
Відео Гуртом - фільмокрай


З нами з: 04.03.09
Востаннє: 24.02.20
Повідомлень: 1094

2020-02-08 17:25  
Звідки в тебе взявся звук з Spek 14 кГц якщо треба то можу завтра перезаписати з нормальним 18 кГц.
sergiyko.5 
VIP


З нами з: 25.02.16
Востаннє: 24.02.20
Повідомлень: 2949

2020-02-08 19:34  
Не треба. В мене вже є доступ до Т2.
vishnu 
Свій


З нами з: 06.10.15
Востаннє: 23.02.20
Повідомлень: 102

2020-02-08 21:41  
Ти коли з кацапської перекладав опис, то варто було би хоч гугле перекладачем скористуватися. Чи навмисно так написав?
sergiyko.5 
VIP


З нами з: 25.02.16
Востаннє: 24.02.20
Повідомлень: 2949

2020-02-09 13:49  
Торент оновлено, додав українську доріжку кращої якості.
Ваш часовий пояс: GMT + 2 Години

Нова тема   Відповісти