Земля до початку часів 14. Подорож хоробрих / The Land Before Time XIV. Journey Of The Brave (2016) 1080p Ukr/Eng

Нові коментарі

Нова тема   Відповісти
Автор Повідомлення
sergiyko.5 
VIP


З нами з: 25.02.16
Востаннє: 26.02.20
Повідомлень: 2954

2020-02-08 10:50  
Всі одноіменні релізи на трекері

Земля до початку часів 14. Подорож хоробрих / The Land Before Time XIV. Journey Of The Brave (2016) 1080p Ukr/Eng


Земля до початку часів 14. Подорож хоробрих / The Land Before Time XIV. Journey Of The Brave (2016) 1080p Ukr/Eng

Жанр: мультфільм, пригодницький, сімейний
Країна: США
Кінокомпанія: Universal Cartoon Studios
Режисер: Девіс Дой

Сюжет:
У головного героя Літлфута особливий день: його батько повертається з важливої мандрівки! Однак очікування виявляється марним, і Літлфут підозрює, що з татом сталася біда. Разом зі своїми вірними друзями він вирушає в подорож, совнену небезпек і веселих пригод, приємних знайомств і захоплюючих вражень.




Тривалість: 01:22:14
Якість:

Відео: кодек: розмір кадру: 1920 х 1080 бітрейт: 4400 кб/с
Аудіо # 1: мова: українська переклад: багатоголосий закадровий кодек: 2.0 бітрейт: 192 кб/с
Озвучення:
Аудіо # 2: мова: англійська переклад: оригінал кодек: + 5.1 бітрейт: 640 кб/с
Субтитри: мова: англійська тип: програмні (м'які) формат: *.srt
Про файл:
General
Unique ID : 186391186115248996361056128163403377265 (0x8C39A2FCDD910D36B789BD1A4C11AA71)
Complete name : D:\Documents\Torrents\MULTSER_2\The Land Before Time 14.Journey of the Brave.2016.1080p..
Format :
Format version : Version 4
File size : 3.02 GiB
Duration : 1 h 22 min
Overall bit rate mode : Variable
Overall bit rate : 5 252 kb/s
Movie name : rip by sergiyko
Encoded date : UTC 2020-02-08 10:12:26
Writing application : v42.0.0 ('Overtime') 64-bit
Writing library : libebml v1.3.10 + v1.5.2

Video
ID : 1
Format : AVC
Format/Info : Advanced Video Codec
Format profile : [email protected]
Format settings : CABAC / 4 Ref Frames
Format settings, CABAC : Yes
Format settings, Reference : 4 frames
Codec ID : V_MPEG4/ISO/AVC
Duration : 1 h 22 min
Bit rate mode : Variable
Bit rate : 4 418 kb/s
Maximum bit rate : 15.0 Mb/s
Width : 1 920 pixels
Height : 1 080 pixels
Display aspect ratio : 16:9
Frame rate mode : Constant
Frame rate : 23.976 (24000/1001) FPS
Color space : YUV
Chroma subsampling : 4:2:0
Bit depth : 8 bits
Scan type : Progressive
Bits/(Pixel*Frame) : 0.089
Stream size : 2.54 GiB (84%)
Language : English
Default : Yes
Forced : No
Color range : Limited
Color primaries : BT.709
Transfer characteristics : BT.709
Matrix coefficients : BT.709

Audio #1
ID : 2
Format : AC-3
Format/Info : Audio Coding 3
Commercial name : Dolby Digital
Codec ID : A_AC3
Duration : 1 h 22 min
Bit rate mode : Constant
Bit rate : 192 kb/s
Channel(s) : 2 channels
Channel layout : L R
Sampling rate : 48.0 kHz
Frame rate : 31.250 FPS (1536 SPF)
Compression mode : Lossy
Stream size : 113 MiB (4%)
Language : Ukrainian
Service kind : Complete Main
Default : Yes
Forced : Yes

Audio #2
ID : 3
Format : E-AC-3
Format/Info : Enhanced AC-3
Commercial name : Dolby Digital Plus
Codec ID : A_EAC3
Duration : 1 h 22 min
Bit rate mode : Constant
Bit rate : 640 kb/s
Channel(s) : 6 channels
Channel layout : L R C LFE Ls Rs
Sampling rate : 48.0 kHz
Frame rate : 31.250 FPS (1536 SPF)
Compression mode : Lossy
Delay relative to video : 25 ms
Stream size : 376 MiB (12%)
Language : English
Service kind : Complete Main
Default : No
Forced : No

Text
ID : 4
Format : UTF-8
Codec ID : S_TEXT/UTF8
Codec ID/Info : UTF-8 Plain Text
Duration : 1 h 20 min
Bit rate : 52 b/s
Count of elements : 1242
Stream size : 30.9 KiB (0%)
Language : English
Default : No
Forced : No
Скріншоти:


Запис: xslim
Зведення: sergiyko


 Трекер:    Зареєстрований   

Завантажити / скачати мультфільм українською



відео для новачків



 Зареєстрований:   2020-02-08 12:21
 Розмір:   3.02 GB 
 Оцінка мультфільму:   10/10 (Голосів: 5)
   
MutuLI 
Відео Гуртом - фільмокрай
Відео Гуртом - фільмокрай


З нами з: 08.03.09
Востаннє: 26.02.20
Повідомлень: 1725

2020-02-08 14:56  
не вистачає ще 5 і 13 мультфільму.
kpomed 
Частий відвідувач


З нами з: 12.10.13
Востаннє: 26.02.20
Повідомлень: 25

2020-02-08 15:03  
Дякую.
Ваш часовий пояс: GMT + 2 Години

Нова тема   Відповісти