Аутсайдери / Ford v Ferrari (2019) 1080p H.265 Ukr/Eng | Sub Ukr/Eng

Нові коментарі

Нова тема   Відповісти
Автор Повідомлення
Anonymous 







2020-02-07 23:06  
Аутсайдери / Ford v Ferrari (2019) 1080p H.265 Ukr/Eng | Sub Ukr/Eng

Аутсайдери / Ford v Ferrari (2019) 1080p H.265 Ukr/Eng | Sub Ukr/Eng


Жанр:біографічний, екшн, драма, спорт
Країна: США, Франція
Кінокомпанія: Chernin Entertainment, Twentieth Century Fox
Режисер: Джеймс Менголд
Актори: Крістіан Бейл, Метт Деймон, Катріна Балф, Трейсі Леттс, Джон Бернтал, Джош Лукас, Ноа Джуп, Ремо Джіроне, Рей МакКіннон, Джей Джей Філд

Сюжет:
Сюжет оповідає про групу американських інженерів і дизайнерів. У 1960-х під керівництвом конструктора Керролла Шелбі і за підтримки британського гонщика Кена Майлса вони повинні були з нуля зробити абсолютно новий спорткар, здатний випередити Феррарі - непереможного чемпіона 24-годинної гонки на витривалість Ле-Ман.

Тривалість: 02:32:35
Якість:

Відео:
кодек: H.265 (HEVC)
розмір кадру: 1920 x 804
бітрейт: 6 594 кб/с
бітова глибина: 10 біт

Увага! Перед завантаженням переконайтесь, що ваш пристрій відтворення (та/або ПЗ) підтримує H.265 (HEVC)

Аудіо # 1:
мова: українська
переклад: професійний дубльований
кодек: AC-3 2.0
бітрейт: 192 кб/с

Аудіо # 2:
мова: англійська
переклад: оригінал
кодек: 5.1
бітрейт: 1510 кб/с

Субтитри # 1-2: (Forced, Full)
мова: українська
тип: програмні (м'які)
формат: *.srt

Субтитри # 3-5: (Forced, Full, SDH)
мова: англійська
тип: програмні (м'які)
формат: *.srt


Info
Код:
General
Unique ID                                : 307567812600150085321184358458705991903 (0xE76367F1089AF89C53F66B57800658DF)
Complete name                            : Ford v Ferrari (2019) 1080p H.265 [UKR_ENG] [Hurtom].
Format                                   :
Format version                           : Version 4
File size                                : 8.84 GiB
Duration                                 : 2 h 32 min
Overall bit rate                         : 8 298 kb/s
Movie name                               : Аутсайдери / Ford v Ferrari (2019)
Encoded date                             : UTC 2020-02-14 21:36:20
Writing application                      : v20.0.0 ('I Am The Sun') 64-bit
Writing library                          : libebml v1.3.5 + v1.4.8
Cover                                    : Yes
Attachments                              : cover.jpg

Video
ID                                       : 1
Format                                   : HEVC
Format/Info                              : High Efficiency Video Coding
Format profile                           : Main [email protected]@High
Codec ID                                 : V_MPEGH/ISO/HEVC
Duration                                 : 2 h 32 min
Bit rate                                 : 6 594 kb/s
Width                                    : 1 920 pixels
Height                                   : 804 pixels
Display aspect ratio                     : 2.40:1
Frame rate mode                          : Constant
Frame rate                               : 23.976 (23976/1000) FPS
Original frame rate                      : 23.976 (24000/1001) FPS
Color space                              : YUV
Chroma subsampling                       : 4:2:0
Bit depth                                : 10 bits
Bits/(Pixel*Frame)                       : 0.178
Stream size                              : 7.03 GiB (79%)
Title                                    : Аутсайдери / Ford v Ferrari (2019)
Writing library                          : x265 3.2.1+1-b5c86a64bbbe:[Windows][MSVC 1923][64 bit] 10bit
Encoding settings                        : cpuid=1111039 / frame-threads=3 / numa-pools=12 / wpp / no-pmode / no-pme / no-psnr / no-ssim / log-level=2 / input-csp=1 / input-res=1920x804 / interlace=0 / total-frames=211663 / level-idc=41 / high-tier=1 / uhd-bd=0 / ref=5 / no-allow-non-conformance / no-repeat-headers / annexb / no-aud / no-hrd / info / hash=0 / no-temporal-layers / open-gop / min-keyint=23 / keyint=240 / gop-lookahead=0 / bframes=12 / b-adapt=2 / b-pyramid / bframe-bias=0 / rc-lookahead=60 / lookahead-slices=4 / scenecut=40 / radl=0 / no-splice / no-intra-refresh / ctu=32 / min-cu-size=8 / rect / amp / max-tu-size=32 / tu-inter-depth=4 / tu-intra-depth=4 / limit-tu=1 / rdoq-level=2 / dynamic-rd=0.00 / no-ssim-rd / signhide / no-tskip / nr-intra=0 / nr-inter=0 / no-constrained-intra / no-strong-intra-smoothing / max-merge=4 / limit-refs=2 / limit-modes / me=3 / subme=7 / merange=57 / temporal-mvp / no-hme / weightp / weightb / no-analyze-src-pics / deblock=-3:-3 / no-sao / no-sao-non-deblock / rd=6 / selective-sao=0 / no-early-skip / no-rskip / no-fast-intra / no-tskip-fast / no-cu-lossless / no-b-intra / no-splitrd-skip / rdpenalty=0 / psy-rd=2.00 / psy-rdoq=1.00 / no-rd-refine / no-lossless / cbqpoffs=0 / crqpoffs=0 / rc=crf / crf=20.0 / qcomp=0.65 / qpstep=4 / stats-write=0 / stats-read=0 / vbv-maxrate=50000 / vbv-bufsize=50000 / vbv-init=0.9 / crf-max=0.0 / crf-min=0.0 / ipratio=1.40 / pbratio=1.30 / aq-mode=1 / aq-strength=1.00 / no-cutree / zone-count=0 / no-strict-cbr / qg-size=32 / no-rc-grain / qpmax=69 / qpmin=0 / no-const-vbv / sar=1 / overscan=0 / videoformat=5 / range=0 / colorprim=1 / transfer=1 / colormatrix=1 / chromaloc=0 / display-window=0 / cll=0,0 / min-luma=0 / max-luma=1023 / log2-max-poc-lsb=8 / vui-timing-info / vui-hrd-info / slices=1 / no-opt-qp-pps / no-opt-ref-list-length-pps / no-multi-pass-opt-rps / scenecut-bias=0.05 / no-opt-cu-delta-qp / no-aq-motion / no-hdr / no-hdr-opt / no-dhdr10-opt / no-idr-recovery-sei / analysis-reuse-level=5 / scale-factor=0 / refine-intra=0 / refine-inter=0 / refine-mv=1 / refine-ctu-distortion=0 / no-limit-sao / ctu-info=0 / no-lowpass-dct / refine-analysis-type=0 / copy-pic=1 / max-ausize-factor=1.0 / no-dynamic-refine / no-single-sei / no-hevc-aq / no-svt / no-field / qp-adaptation-range=1.00
Default                                  : Yes
Forced                                   : No
Color range                              : Limited
Color primaries                          : BT.709
Transfer characteristics                 : BT.709
Matrix coefficients                      : BT.709

Audio #1
ID                                       : 2
Format                                   : AC-3
Format/Info                              : Audio Coding 3
Commercial name                          : Dolby Digital
Codec ID                                 : A_AC3
Duration                                 : 2 h 32 min
Bit rate mode                            : Constant
Bit rate                                 : 192 kb/s
Channel(s)                               : 2 channels
Channel layout                           : L R
Sampling rate                            : 48.0 kHz
Frame rate                               : 31.250 FPS (1536 SPF)
Compression mode                         : Lossy
Stream size                              : 210 MiB (2%)
Title                                    : / 2.0 Ch / 192 kbps / ПД / iTunes
Language                                 : Ukrainian
Service kind                             : Complete Main
Default                                  : Yes
Forced                                   : Yes

Audio #2
ID                                       : 3
Format                                   : ES
Format/Info                              : Digital Theater Systems
Commercial name                          : -ES Matrix
Codec ID                                 : A_DTS
Duration                                 : 2 h 32 min
Bit rate mode                            : Constant
Bit rate                                 : 1 509 kb/s
Channel(s)                               : 6 channels
Channel(s)_Original                      : 7 channels
ChannelLayout_Original                   : C L R Ls Rs Cs LFE
Sampling rate                            : 48.0 kHz
Frame rate                               : 93.750 FPS (512 SPF)
Bit depth                                : 24 bits
Compression mode                         : Lossy
Stream size                              : 1.61 GiB (18%)
Title                                    : -ES / 5.1 Ch / 1509 kbps / Original
Language                                 : English
Default                                  : No
Forced                                   : No

Text #1
ID                                       : 4
Format                                   : UTF-8
Codec ID                                 : S_TEXT/UTF8
Codec ID/Info                            : UTF-8 Plain Text
Duration                                 : 1 h 57 min
Bit rate                                 : 1 b/s
Count of elements                        : 14
Stream size                              : 1.03 KiB (0%)
Title                                    : Forced
Language                                 : Ukrainian
Default                                  : Yes
Forced                                   : Yes

Text #2
ID                                       : 5
Format                                   : UTF-8
Codec ID                                 : S_TEXT/UTF8
Codec ID/Info                            : UTF-8 Plain Text
Duration                                 : 2 h 31 min
Bit rate                                 : 91 b/s
Count of elements                        : 2072
Stream size                              : 101 KiB (0%)
Title                                    : Full
Language                                 : Ukrainian
Default                                  : No
Forced                                   : No

Text #3
ID                                       : 6
Format                                   : UTF-8
Codec ID                                 : S_TEXT/UTF8
Codec ID/Info                            : UTF-8 Plain Text
Duration                                 : 1 h 24 min
Bit rate                                 : 0 b/s
Count of elements                        : 9
Stream size                              : 304 Bytes (0%)
Title                                    : Forced
Language                                 : English
Default                                  : No
Forced                                   : No

Text #4
ID                                       : 7
Format                                   : UTF-8
Codec ID                                 : S_TEXT/UTF8
Codec ID/Info                            : UTF-8 Plain Text
Duration                                 : 2 h 24 min
Bit rate                                 : 51 b/s
Count of elements                        : 1638
Stream size                              : 54.8 KiB (0%)
Title                                    : Full
Language                                 : English
Default                                  : No
Forced                                   : No

Text #5
ID                                       : 8
Format                                   : UTF-8
Codec ID                                 : S_TEXT/UTF8
Codec ID/Info                            : UTF-8 Plain Text
Duration                                 : 2 h 32 min
Bit rate                                 : 66 b/s
Count of elements                        : 2489
Stream size                              : 73.8 KiB (0%)
Title                                    : SDH
Language                                 : English
Default                                  : No
Forced                                   : No

Menu
00:00:00.000                             : :Chapter 01
00:04:45.619                             : :Chapter 02
00:07:32.535                             : :Chapter 03
00:10:02.811                             : :Chapter 04
00:15:39.313                             : :Chapter 05
00:20:15.172                             : :Chapter 06
00:21:39.798                             : :Chapter 07
00:26:00.893                             : :Chapter 08
00:31:57.874                             : :Chapter 09
00:34:09.756                             : :Chapter 10
00:39:13.268                             : :Chapter 11
00:42:06.899                             : :Chapter 12
00:45:57.004                             : :Chapter 13
00:48:38.666                             : :Chapter 14
00:51:22.079                             : :Chapter 15
00:55:03.675                             : :Chapter 16
00:57:50.801                             : :Chapter 17
01:00:27.040                             : :Chapter 18
01:06:33.489                             : :Chapter 19
01:11:59.815                             : :Chapter 20
01:16:13.778                             : :Chapter 21
01:19:30.516                             : :Chapter 22
01:24:18.762                             : :Chapter 23
01:29:24.985                             : :Chapter 24
01:33:16.174                             : :Chapter 25
01:38:11.302                             : :Chapter 26
01:40:57.468                             : :Chapter 27
01:43:23.322                             : :Chapter 28
01:45:49.218                             : :Chapter 29
01:50:38.966                             : :Chapter 30
01:53:38.353                             : :Chapter 31
01:57:47.602                             : :Chapter 32
02:00:16.668                             : :Chapter 33
02:05:22.890                             : :Chapter 34
02:09:18.376                             : :Chapter 35
02:12:01.497                             : :Chapter 36
02:15:26.410                             : :Chapter 37
02:18:23.128                             : :Chapter 38
02:20:46.438                             : :Chapter 39
02:26:27.612                             : :Chapter 40
Світлини




Джерело: &
Особиста оцінка: 10 - без зайвих вагань рекомендую всім!


 Трекер:    Зареєстрований   

Завантажити / скачати фільм українською



відео для новачків



 Зареєстрований:   2020-02-14 23:46
 Розмір:   8.84 GB 
 Оцінка фільму:   9.3/10 (Голосів: 7)
   
Інші релізи
Anonymous 







2020-02-14 23:46  
Заміна звуку на 2.0 від 
Ваш часовий пояс: GMT + 2 Години

Нова тема   Відповісти