На межі (Сезон 1, серії 1-8) / The Brink (Season 1, episodes 1-8) (2015) 1080p Ukr/Eng | Sub Eng

Нові коментарі

Нова тема   Відповісти
Автор Повідомлення
eneyida.tv 
Новенький


З нами з: 27.09.19
Востаннє: 24.02.20
Повідомлень: 16

2020-02-07 20:24  
На межі (Сезон 1, серії 1-8) / The Brink (Season 1, episodes 1-8) (2015) 1080p Ukr/Eng | Sub Eng

На межі (Сезон 1, серії 1-8) / The Brink (Season 1, episodes 1-8) (2015) 1080p Ukr/Eng | Sub Eng


Жанр: комедія
Країна: США



Кінокомпанія: Home Box Office (HBO), Jerry Weintraub Productions, Everyman Pictures
Режисер: Майкл Леманн, Адам Бернштейн, Джеймс М. Муро
Актори: Тім Робінс, Джек Блeк, Пабло Шрайбер, Аасіф Мандві, Мерібет Монро, Ерік Ладен, Джеффрі Пірсон, Есай Моралес, Ікбал Теба, Ерік Аварі

Сюжет:
Уряд і армія США намагаються запобігти Третій світовій війні, в той час як у світі панує геополітична криза.


Тривалість: 1 серія: ~ 30:00 хв. (цілком серій: 10)
Перелік серій
1. Pilot
2. Half-Cocked
3. Baghdad My
4. I'll Never Be Batman
5. Swim, Shmuley, Swim
6. Tweet Tweet Tweet
7. Sticky Wicket
8. Who's Grover Cleveland?
9. Just a Little Crazy Talk
10. There Will Be Consequences
Якість:
Відео:
кодек:
розмір кадру: 1912 х 1072
бітрейт: 5000 кб/с

Аудіо # 1:
мова: українська
переклад: багатоголосий закадровий | DniproFilm
кодек: 5.1
бітрейт: 384 кб/с

Аудіо # 2:
мова: англійська
переклад: оригінал
кодек: 5.1
бітрейт: 384 кб/с

Субтитри: # 1 - на діалоги іншими мовами, ніж англійська
мова: англійська
тип: вбудовані (жорсткі)

Субтитри: # 2
мова: англійська
тип: програмні (м'які)
формат: *.srt
Info
Код:
General
Unique ID                                : 215990862730851596387867153269674990447 (0xA27E53B7E4AABD48B7402B098877DB6F)
Complete name                            : The Brink - S01E01 (2015) 1080p [Ukr.Eng] [eneyida.tv].
Format                                   :
Format version                           : Version 4
File size                                : 1.36 GiB
Duration                                 : 33mn 23s
Overall bit rate                         : 5 823 Kbps
Encoded date                             : UTC 2020-02-07 10:33:43
Writing application                      : v43.0.0 ('The Quartermaster') 64-bit
Writing library                          : libebml v1.3.10 + v1.5.2

Video
ID                                       : 1
Format                                   : AVC
Format/Info                              : Advanced Video Codec
Format profile                           : [email protected]
Format settings                          : CABAC / 4 Ref Frames
Format settings, CABAC                   : Yes
Format settings, ReFrames                : 4 frames
Codec ID                                 : V_MPEG4/ISO/AVC
Duration                                 : 33mn 23s
Bit rate                                 : 5 052 Kbps
Width                                    : 1 912 pixels
Height                                   : 1 072 pixels
Display aspect ratio                     : 16:9
Frame rate mode                          : Constant
Frame rate                               : 23.976 (23976/1000) fps
Color space                              : YUV
Chroma subsampling                       : 4:2:0
Bit depth                                : 8 bits
Scan type                                : Progressive
Bits/(Pixel*Frame)                       : 0.103
Stream size                              : 1.18 GiB (87%)
Language                                 : English
Default                                  : Yes
Forced                                   : No
Color range                              : Limited
Color primaries                          : BT.709
Transfer characteristics                 : BT.709
Matrix coefficients                      : BT.709

Audio #1
ID                                       : 2
Format                                   : AC-3
Format/Info                              : Audio Coding 3
Commercial name                          : Dolby Digital
Codec ID                                 : A_AC3
Duration                                 : 33mn 23s
Bit rate mode                            : Constant
Bit rate                                 : 384 Kbps
Channel(s)                               : 6 channels
Channel layout                           : L R C LFE Ls Rs
Sampling rate                            : 48.0 KHz
Frame rate                               : 31.250 fps (1536 SPF)
Compression mode                         : Lossy
Stream size                              : 91.7 MiB (7%)
Title                                    : MVO [DniproFilm] for [eneyida.tv]
Language                                 : Ukrainian
Service kind                             : Complete Main
Default                                  : Yes
Forced                                   : Yes

Audio #2
ID                                       : 3
Format                                   : AC-3
Format/Info                              : Audio Coding 3
Commercial name                          : Dolby Digital
Codec ID                                 : A_AC3
Duration                                 : 33mn 23s
Bit rate mode                            : Constant
Bit rate                                 : 384 Kbps
Channel(s)                               : 6 channels
Channel layout                           : L R C LFE Ls Rs
Sampling rate                            : 48.0 KHz
Frame rate                               : 31.250 fps (1536 SPF)
Compression mode                         : Lossy
Stream size                              : 91.7 MiB (7%)
Title                                    : Original
Language                                 : English
Service kind                             : Complete Main
Default                                  : No
Forced                                   : No

Text
ID                                       : 4
Format                                   : UTF-8
Codec ID                                 : S_TEXT/UTF8
Codec ID/Info                            : UTF-8 Plain Text
Duration                                 : 33mn 13s
Bit rate                                 : 150 bps
Count of elements                        : 739
Stream size                              : 36.7 KiB (0%)
Title                                    : Full
Language                                 : English
Default                                  : No
Forced                                   : No



Озвучено студією DniproFilm на замовлення eneyida.tv
Особиста оцінка: 10 - без зайвих вагань рекомендую всім!

Торрент-файл оновлено 24.02.2020. Додано 8 серію.


Авторський реліз (завантажувати можна без реєстрації)
 Трекер:    Зареєстрований   

Завантажити / скачати серіал українською



відео для новачків



 Зареєстрований:   2020-02-24 19:05
 Розмір:   8.66 GB 
 Оцінка серіалу:   10/10 (Голосів: 8)
   
bot 
робот


З нами з: 30.09.07
Востаннє: 26.05.05
Повідомлень: 23421

2020-02-07 20:24  
Тему перенесено з Серіали в HD до форуму Анонси релізів


eneyida.tv

UAbomber 
Новенький


З нами з: 03.01.20
Востаннє: 29.02.20
Повідомлень: 20

2020-02-08 00:11  
Дивився декілька місяців тому, доволі сперматоксикозний і містами кумедний) Чекаю
bot 
робот


З нами з: 30.09.07
Востаннє: 26.05.05
Повідомлень: 23421

2020-02-08 19:09  
Тему перенесено з Анонси релізів до форуму Серіали в HD


eneyida.tv

ika1963 
Відео Гуртом - дизайнер
Відео Гуртом - дизайнер


З нами з: 13.05.10
Востаннє: 26.02.20
Повідомлень: 289

2020-02-09 17:12  
Серіал дуже кумендний, жаль, що вже подивився в 2015 році.
Cartwright 
VIP


З нами з: 23.03.13
Востаннє: 28.02.20
Повідомлень: 260

2020-02-14 14:48  
Заради української озвучки можна передивитися цей крутезний серіал ще раз. Дарма його свого часу закрили, зараз би був гіпер-популярним з огляду на президентство Трампа.
eneyida.tv 
Новенький


З нами з: 27.09.19
Востаннє: 24.02.20
Повідомлень: 16

2020-02-14 21:26  
Додано 4 серію.
eneyida.tv 
Новенький


З нами з: 27.09.19
Востаннє: 24.02.20
Повідомлень: 16

2020-02-16 17:54  
Додано 5 серію.
eneyida.tv 
Новенький


З нами з: 27.09.19
Востаннє: 24.02.20
Повідомлень: 16

2020-02-18 20:23  
Додано 6 серію.
eneyida.tv 
Новенький


З нами з: 27.09.19
Востаннє: 24.02.20
Повідомлень: 16

2020-02-22 17:13  
Додано 7 серію.
eneyida.tv 
Новенький


З нами з: 27.09.19
Востаннє: 24.02.20
Повідомлень: 16

2020-02-24 19:07  
Додано 8 серію. 
Ваш часовий пояс: GMT + 2 Години

Нова тема   Відповісти