Вероніка вирішує померти / Veronika Decides to Die (2009) 1080p [Open Matte] Ukr/Eng | Sub Eng

Нові коментарі

Нова тема   Відповісти
Автор Повідомлення
Anonymous 







2020-02-07 18:57  
Вероніка вирішує померти / Veronika Decides to Die (2009) 1080p [Open Matte] Ukr/Eng | Sub Eng

Вероніка вирішує померти / Veronika Decides to Die (2009) 1080p [Open Matte] Ukr/Eng | Sub Eng


Жанр: драма, мелодрама
Країна: США



Кінокомпанія: Das Films, Future Films, Muse Productions, PalmStar Entertainment, Velvet Steamroller Entertainment
Режисер: Емілі Янг
Актори: Сара Мішель Геллар, Джонатан Такер, Еріка Крістенсен, Флоренція Лозаньо, Рина Оуен, Еріка Гімпель, Віктор Слезак, Барбара Зукова, Віктор Штейнбах, Мелісса Лео, Девід Тьюліс, Джефф Епплгейт, Лізетт Бросс, Меттью Коулз, Джилл Далтон, Мег Гібсон, Холтер Грем, Ніколетт Харт, Ворд Хортон, Грегорі Марсель, Адріан Мартінез, Ліза Рамірез, Стюарт Рудін та інші

Сюжет:
Після невдалої спроби самогубства Вероніка опиняється в божевільні. Коли вона остаточно приходить до тями, лікарі повідомляють їй невтішну новину: у неї невиправні проблеми з серцем і жити їй залишилося не так вже й довго. Чи вдасться Вероніці перемогти хворобу і знов знайти бажання жити і кохати?...
Офіційний трейлер:

Рейтинг MPAA: R - особам до 17 років обов'язкова присутність батьків або дорослого опікуна
Вікова категорія: 16+

Тривалість: 01:42:59
Якість: 1080p [Open Matte]

Відео:
кодек:
розмір кадру: 1920 x 1080
бітрейт: 5120 кб/с

Аудіо # 1:
мова: українська
переклад: багатоголосий закадровий
кодек: 2.0
бітрейт: 192 кб/с

Аудіо # 2:
мова: англійська
переклад: оригінал
кодек: 5.1
бітрейт: 640 кбіт/с

Субтитри:
мова: англійська
тип: програмні (м'які)
формат: *.srt
Info
Код:

Complete name               : Veronika Decides to Die [Open Matte] (2009) [Ukr,Eng sub.Eng] 1080p [Hurtom].
Format                      :
Format version              : Version 4
File size                   : 4.12 GiB
Duration                    : 1 h 43 min
Overall bit rate            : 5 730 kb/s
Movie name                  : Вероніка вирішує померти / Veronika Decides to Die [Open Matte] (2009) [Ukr,Eng sub.Eng] 1080p [Hurtom]
Encoded date                : UTC 2020-02-07 14:50:48
Writing application         : v43.0.0 ('The Quartermaster') 64-bit
Writing library             : libebml v1.3.10 + v1.5.2
Cover                       : Yes
Attachments                 : cover.jpg

Video
ID                          : 1
Format                      : AVC
Format/Info                 : Advanced Video Codec
Format profile              : [email protected]
Format settings             : CABAC / 4 Ref Frames
Format settings, CABAC      : Yes
Format settings, Reference  : 4 frames
Codec ID                    : V_MPEG4/ISO/AVC
Duration                    : 1 h 42 min
Bit rate                    : 5 120 kb/s
Width                       : 1 920 pixels
Height                      : 1 080 pixels
Display aspect ratio        : 16:9
Frame rate mode             : Constant
Frame rate                  : 23.976 (24000/1001) FPS
Color space                 : YUV
Chroma subsampling          : 4:2:0
Bit depth                   : 8 bits
Scan type                   : Progressive
Bits/(Pixel*Frame)          : 0.103
Stream size                 : 3.52 GiB (85%)
Title                       : Вероніка вирішує померти / Veronika Decides to Die (2009) 1080p [Open Matte]
Writing library             : core 142
Encoding settings           : cabac=1 / ref=3 / deblock=1:0:0 / analyse=0x3:0x113 / me=hex / subme=7 / psy=1 / psy_rd=1.00:0.00 / mixed_ref=1 / me_range=16 / chroma_me=1 / trellis=1 / 8x8dct=1 / cqm=0 / deadzone=21,11 / fast_pskip=1 / chroma_qp_offset=-2 / threads=4 / lookahead_threads=1 / sliced_threads=0 / nr=0 / decimate=1 / interlaced=0 / bluray_compat=0 / constrained_intra=0 / bframes=6 / b_pyramid=2 / b_adapt=1 / b_bias=0 / direct=1 / weightb=1 / open_gop=0 / weightp=2 / keyint=200 / keyint_min=20 / scenecut=0 / intra_refresh=0 / rc_lookahead=40 / rc=2pass / mbtree=1 / bitrate=5120 / ratetol=1.0 / qcomp=0.60 / qpmin=0 / qpmax=69 / qpstep=4 / cplxblur=20.0 / qblur=0.5 / vbv_maxrate=7680 / vbv_bufsize=20480 / nal_hrd=none / filler=0 / ip_ratio=1.40 / aq=1:1.00
Language                    : English
Default                     : Yes
Forced                      : No

Audio #1
ID                          : 2
Format                      : AC-3
Format/Info                 : Audio Coding 3
Commercial name             : Dolby Digital
Codec ID                    : A_AC3
Duration                    : 1 h 43 min
Bit rate mode               : Constant
Bit rate                    : 192 kb/s
Channel(s)                  : 2 channels
Channel layout              : L R
Sampling rate               : 48.0 kHz
Frame rate                  : 31.250 FPS (1536 SPF)
Compression mode            : Lossy
Stream size                 : 141 MiB (3%)
Title                       : MVO [TRK Kyiv], 2.0 192 Kbps
Language                    : Ukrainian
Service kind                : Complete Main
Default                     : Yes
Forced                      : No

Audio #2
ID                          : 3
Format                      : AC-3
Format/Info                 : Audio Coding 3
Commercial name             : Dolby Digital
Codec ID                    : A_AC3
Duration                    : 1 h 43 min
Bit rate mode               : Constant
Bit rate                    : 640 kb/s
Channel(s)                  : 6 channels
Channel layout              : L R C LFE Ls Rs
Sampling rate               : 48.0 kHz
Frame rate                  : 31.250 FPS (1536 SPF)
Compression mode            : Lossy
Stream size                 : 471 MiB (11%)
Title                       : Original [Blu-ray], 5.1 640 Kbps
Language                    : English
Service kind                : Complete Main
Default                     : No
Forced                      : No

Text
ID                          : 4
Format                      : UTF-8
Codec ID                    : S_TEXT/UTF8
Codec ID/Info               : UTF-8 Plain Text
Duration                    : 1 h 35 min
Bit rate                    : 33 b/s
Count of elements           : 645
Stream size                 : 23.8 KiB (0%)
Title                       : Eng Full
Language                    : English
Default                     : No
Forced                      : No
Скріншоти, порівняння з блуреєм:

Блурей<---------->Цей Open Matte





Джерело: &
Українська доріжка: Krigg070, Bohdan237, drop_plz.


 Трекер:    Зареєстрований   

Завантажити / скачати фільм українською



відео для новачків



 Зареєстрований:   2020-02-07 18:57
 Розмір:   4.12 GB 
 Оцінка фільму:   9.8/10 (Голосів: 5)
 ЗАЛИШАЙТЕСЬ ЯКОМОГА ДОВШЕ НА РОЗДАЧІ! ЗАВАНТАЖИВ САМ - ДАЙ ЗАВАНТАЖИТИ ІНШИМ!
   
Інші релізи
Ваш часовий пояс: GMT + 2 Години

Нова тема   Відповісти