Я тебе бачу / I See You (2019) 720p Eng | sub Ukr

Нові коментарі

Нова тема   Відповісти
Автор Повідомлення
Chupacabr007 
Свій


З нами з: 07.07.15
Востаннє: 24.02.20
Повідомлень: 88

2020-02-07 12:34  
Я тебе бачу / I See You (2019) 720p Eng | sub Ukr

Я тебе бачу / I See You (2019) 720p Eng | sub Ukr


Жанр: кримінальний, детектив, трилер, жахи
Країна: США



Кінокомпанія: Head Gear Films, Kreo Films FZ, Metrol Technology, Saban Films
Режисер: Адам Рендалл
Актори: Гелен Гант, Джон Тенні, Джуда Льюїс, Оуен Тіг, Лібе Барер, Грегорі Алан Вільямс

Сюжет:
У тихому і спокійному містечку безслідно зникає 10-річний хлопчик. Все вказує на те, що повторюються злочини минулих років, коли в окрузі зникали діти. Детектив Грег Гарпер, призначений на справу, страждає від сварки з дружиною Джекі, яка його зрадила, після чого в сім'ї все пішло шкереберть. Син ображений на матір, сам глава сімейства все більше спить на дивані, і лише Джекі бачить, що в їхньому будинку відбуваються якісь дивні речі, але ніхто не хоче її слухати.


Тривалість: 01:38:14
Якість:
Відео:
кодек:
розмір кадру: 1280 х 576
бітрейт: 2555 кб/с

Аудіо:
мова: англійська
переклад: оригінал
кодек: 5.1
бітрейт: 640 кб/с

Субтитри:
мова: українська
тип: програмні (м'які)
формат: *.srt
переклад: [SubAutumn]
Info
General
Complete name : D:\SubAutumn\Films\I See You\I See You (2019) [Eng Sub.Ukr] 720p [Hurtom].
Format :
Format version : Version 4 / Version 2
File size : 2.24 GiB
Duration : 1h 38mn
Overall bit rate : 3 259 Kbps
Movie name : I See You (2019) [Eng Sub.Ukr] 720p [Hurtom]
Encoded date : UTC 2020-02-07 10:15:01
Writing application : v6.5.0 ('Isn't she lovely') built on Oct 20 2013 12:50:05
Writing library : libebml v1.3.0 + v1.4.1
DURATION : 01:38:13.856000000
NUMBER_OF_FRAMES : 184183
NUMBER_OF_BYTES : 471508480
_STATISTICS_WRITING_APP : v7.1.0 ('Good Love') 64bit built on Jul 27 2014 13:06:55
_STATISTICS_WRITING_DATE_UTC : 2019-12-06 15:23:41
_STATISTICS_TAGS : BPS DURATION NUMBER_OF_FRAMES NUMBER_OF_BYTES

Video
ID : 1
Format : AVC
Format/Info : Advanced Video Codec
Format profile : [email protected]
Format settings, CABAC : Yes
Format settings, ReFrames : 4 frames
Codec ID : V_MPEG4/ISO/AVC
Duration : 1h 38mn
Bit rate mode : Constant
Bit rate : 2 555 Kbps
Nominal bit rate : 6 000 Kbps
Width : 1 280 pixels
Height : 576 pixels
Display aspect ratio : 2.2:1
Original display aspect ratio : 2.2:1
Frame rate mode : Constant
Frame rate : 23.976 fps
Color space : YUV
Chroma subsampling : 4:2:0
Bit depth : 8 bits
Scan type : Progressive
Bits/(Pixel*Frame) : 0.145
Stream size : 1.75 GiB (78%)
Default : Yes
Forced : No
Color range : Limited
Color primaries : BT.709
Transfer characteristics : BT.709
Matrix coefficients : BT.709

Audio
ID : 2
Format : AC-3
Format/Info : Audio Coding 3
Mode extension : CM (complete main)
Format settings, Endianness : Big
Codec ID : A_AC3
Duration : 1h 38mn
Bit rate mode : Constant
Bit rate : 640 Kbps
Channel(s) : 6 channels
Channel positions : Front: L C R, Side: L R, LFE
Sampling rate : 48.0 KHz
Compression mode : Lossy
Stream size : 450 MiB (20%)
Title : Original
Language : English
Default : No
Forced : No

Text
ID : 3
Format : UTF-8
Codec ID : S_TEXT/UTF8
Codec ID/Info : UTF-8 Plain Text
Title : I See You (2019) [Eng Sub.Ukr] 720p [Hurtom]
Language : Ukrainian
Default : Yes
Forced : No
Скріншоти




Джерело:
Українізація постера: Otaku-First
Особиста оцінка: 8 - мені сподобалося


Золотий реліз (завантажене не впливає на рейтинг)
 Трекер:    Зареєстрований   

Завантажити / скачати фільм українською



відео для новачків



 Зареєстрований:   2020-02-07 12:34
 Розмір:   2.24 GB 
 Оцінка фільму:   10/10 (Голосів: 5)
   
Ваш часовий пояс: GMT + 2 Години

Нова тема   Відповісти