Смерть їй личить (Смерть їй пасує) / Death Becomes Her [Collector's Edition] (1992) Remux 1080p 2xUkr/Eng | Sub Eng

Нові коментарі

Нова тема   Відповісти
Автор Повідомлення
MakRA 
VIP


З нами з: 10.11.18
Востаннє: 01.03.21
Повідомлень: 1187

2020-02-07 02:03  
Смерть їй личить (Смерть їй пасує) / Death Becomes Her [Collector's Edition] (1992) Remux 1080p 2xUkr/Eng | Sub Eng


Український постер:

Жанр: комедія, фентезі
Країна: США



Кінокомпанія: Universal Pictures
Режисер: Роберт Земекіс [Robert Zemeckis]
Актори: Меріл Стріп [Meryl Streep], Брюс Віліс [Bruce Willis], Ґолді Гоун [Goldie Hawn], Ізабелла Росселліні [Isabella Rossellini], Ненсі Фіш [Nancy Fish], Мішель Джонсон [Michelle Johnson], Сідні Поллак [Sydney Pollack], Єн Огілві [Ian Ogilvy], Адам Сторк [Adam Storke], Мері Еллен Трейнор [Mary Ellen Trainor]

Сюжет:
Шедевральна, містично-сатирична кінокомедія від Роберта Земекіса про жагу вічної молодості, заради якої деякі люди готові на все.
За сюжетом, самозакохані красуні Медлін і Хелен - дві близькі подруги. Зірка кіно і сцени Медлін закохує в себе чоловіка найкращої подруги, відомого пластичного хірурга Ернеста Менвіла.
Хелен, впавши в депресію, гладшає, а згодом навіть потрапляє у божевільню. Там вона опановує себе та вирішує помститися подрузі. Через кілька років вона повністю зовнішньо змінюється, викликаючи у давнього коханця й подруги справжній подив.
Жінки вступають у безкомпромісну конкуренцію одна з одною, шукаючи способи помолодшати, але їх жага бути кращою за подругу приводить їх до вкрай небезпечних ігор зі смертю…

Фільм отримав премію Оскар у номінації «найкращі візуальні ефекти».


Тривалість: 01:43:22
Якість: Remux 1080p [US Collector's Edition] - порівняння з німецьким виданням від Koch Media
Відео:
кодек:
розмір кадру: 1920 х 1080
бітрейт: 35 Mб/с

Аудіо # 1:
мова: українська
переклад: багатоголосий закадровий
кодек: 2.0
бітрейт: 192 кб/с
назву перекладено як: "Смерть їй личить"

Аудіо # 2:
мова: українська
переклад: двоголосий закадровий
кодек: 2.0
бітрейт: 192 кб/с
назву перекладено як: "Смерть їй пасує"

Аудіо # 3:
мова: англійська
переклад: оригінал
кодек: -HD MA 5.1
бітрейт: 3591 кб/с

Аудіо # 4:
мова: англійська
переклад: оригінал
кодек: 2.0
бітрейт: 448 кб/с

Субтитри # 1-2: (Full) | (SDH)
мова: англійська
тип: програмні (м'які)
формат: *.srt

Збережено оригінальні іменовані розділи, як на Blu-ray.
Info
General
Unique ID : 75734506703780836607277529647738172941 (0x38F9EF783CAAD033AE98168990AEB60D)
Complete name : I:\+ Фільми в HD\комедія, фентезі, романтичний\Death Becomes Her [Collector's Edition] (1992) Remux 1080p 2xUkrEng Sub Eng [Hurtom].
Format :
Format version : Version 4
File size : 27.6 GiB
Duration : 1 h 43 min
Overall bit rate mode : Variable
Overall bit rate : 38.2 Mb/s
Movie name : Смерть їй личить (Смерть їй пасує) / Death Becomes Her [Collector's Edition] (1992) Remux 1080p 2xUkr/Eng | Sub Eng [Hurtom]
Encoded date : UTC 2020-02-06 23:34:20
Writing application : v25.0.0 ('Prog Noir') 64-bit
Writing library : libebml v1.3.6 + v1.4.9
Cover : Yes
Attachments : cover.jpg

Video
ID : 1
Format : AVC
Format/Info : Advanced Video Codec
Format profile : [email protected]
Format settings : CABAC / 4 Ref Frames
Format settings, CABAC : Yes
Format settings, Reference fra : 4 frames
Codec ID : V_MPEG4/ISO/AVC
Duration : 1 h 43 min
Bit rate mode : Constant
Bit rate : 35.0 Mb/s
Width : 1 920 pixels
Height : 1 080 pixels
Display aspect ratio : 16:9
Frame rate mode : Constant
Frame rate : 23.976 (24000/1001) FPS
Color space : YUV
Chroma subsampling : 4:2:0
Bit depth : 8 bits
Scan type : Progressive
Bits/(Pixel*Frame) : 0.704
Stream size : 24.4 GiB (88%)
Title : Death Becomes Her [Collector's Edition] (1992) Remux 1080p 2xUkr/Eng | Sub Eng [Hurtom]
Language : Ukrainian
Default : Yes
Forced : Yes

Audio #1
ID : 2
Format : AC-3
Format/Info : Audio Coding 3
Commercial name : Dolby Digital
Codec ID : A_AC3
Duration : 1 h 43 min
Bit rate mode : Constant
Bit rate : 192 kb/s
Channel(s) : 2 channels
Channel layout : L R
Sampling rate : 48.0 kHz
Frame rate : 31.250 FPS (1536 SPF)
Compression mode : Lossy
Stream size : 142 MiB (1%)
Title : MVO [УКРАЇНА] 2.0
Language : Ukrainian
Service kind : Complete Main
Default : Yes
Forced : Yes

Audio #2
ID : 3
Format : AC-3
Format/Info : Audio Coding 3
Commercial name : Dolby Digital
Codec ID : A_AC3
Duration : 1 h 43 min
Bit rate mode : Constant
Bit rate : 192 kb/s
Channel(s) : 2 channels
Channel layout : L R
Sampling rate : 48.0 kHz
Frame rate : 31.250 FPS (1536 SPF)
Compression mode : Lossy
Stream size : 142 MiB (1%)
Title : DVO [НОВИЙ] 2.0
Language : Ukrainian
Service kind : Complete Main
Default : No
Forced : No

Audio #3
ID : 4
Format : XLL
Format/Info : Digital Theater Systems
Commercial name : -HD Master Audio
Codec ID : A_DTS
Duration : 1 h 43 min
Bit rate mode : Variable
Bit rate : 3 591 kb/s
Channel(s) : 6 channels
Channel layout : C L R Ls Rs LFE
Sampling rate : 48.0 kHz
Frame rate : 93.750 FPS (512 SPF)
Bit depth : 24 bits
Compression mode : Lossless
Stream size : 2.59 GiB (9%)
Title : Original -HD MA 5.1
Language : English
Default : No
Forced : No

Audio #4
ID : 5
Format : AC-3
Format/Info : Audio Coding 3
Commercial name : Dolby Digital
Codec ID : A_AC3
Duration : 1 h 43 min
Bit rate mode : Constant
Bit rate : 448 kb/s
Channel(s) : 2 channels
Channel layout : L R
Sampling rate : 48.0 kHz
Frame rate : 31.250 FPS (1536 SPF)
Compression mode : Lossy
Stream size : 332 MiB (1%)
Title : Original 2.0
Language : English
Service kind : Complete Main
Default : No
Forced : No

Text #1
ID : 6
Format : UTF-8
Codec ID : S_TEXT/UTF8
Codec ID/Info : UTF-8 Plain Text
Duration : 1 h 36 min
Bit rate : 55 b/s
Count of elements : 1119
Stream size : 39.0 KiB (0%)
Title : Eng (Full)
Language : English
Default : No
Forced : No

Text #2
ID : 7
Format : UTF-8
Codec ID : S_TEXT/UTF8
Codec ID/Info : UTF-8 Plain Text
Duration : 1 h 36 min
Bit rate : 59 b/s
Count of elements : 1217
Stream size : 42.0 KiB (0%)
Title : Eng (SDH)
Language : English
Default : No
Forced : No

Menu
00:00:00.000 : en:Main Titles: Broadway 1978
00:05:04.513 : en:Mad and Hel
00:09:01.541 : en:7 Years Later
00:12:35.380 : en:Another 7 Years Later
00:20:40.739 : en:Helen's Party
00:26:46.772 : en:Secret Plots and Second Thoughts
00:30:20.110 : en:Lisle
00:47:09.243 : en:The Fall and Rise of Madeline Ashton
00:55:55.269 : en:A Medical Miracle
01:05:51.489 : en:Helen Has a Blast
01:09:55.858 : en:Gut Reactions
01:15:40.953 : en:Touch-Ups
01:25:01.888 : en:The Party
01:32:54.402 : en:37 Years Later
01:36:13.226 : en:Going to Pieces
01:37:35.600 : en:End Titles
Скріншоти
Джерело: &
За українські доріжки дякую п. robotron005, п. Merdiff, п. anonymous
Український постер від п. Musketeer
Особиста оцінка: 10 - без зайвих вагань рекомендую всім!


Золотий реліз (завантажене не впливає на рейтинг)
 Трекер:    Зареєстрований   

Завантажити / скачати фільм українською



відео для новачків



 Зареєстрований:   2020-02-07 02:03
 Розмір:   27.62 GB 
 Оцінка фільму:   10/10 (Голосів: 10)
   
Ваш часовий пояс: GMT + 2 Години

Нова тема   Відповісти