Омен: Переродження / The Prodigy (2019) Remux 1080p Ukr/Eng | Sub Eng

Нові коментарі

Нова тема   Відповісти
Автор Повідомлення
Anonymous 







2020-02-06 19:23  
Омен: Переродження / The Prodigy (2019) Remux 1080p Ukr/Eng | Sub Eng

Омен: Переродження / The Prodigy (2019) Remux 1080p Ukr/Eng | Sub Eng


Жанр: трилер, жахи
Країна: США, Гонконг



Кінокомпанія: Orion Pictures, XYZ Films
Режисер: Ніколас МакКарті
Актори: Тейлор Шилінг, Джексон Роберт Скотт, Колм Фіоре, Пітер Муні, Пол Фото, Бріттані Аллен, Паула Бадьоро, Еліза Мулчеррі, Олуніке Аделійі, Джанет Ленд, Мартін Роуч, Байрон Абалос, Ешлі Блек, Ніколас МакКарті

Сюжет:
Молода мати Сара стурбована вельми дивною поведінкою свого восьмирічного сина Майлза. Хоч у це і важко повірити, але є відчуття, що надприродне зло поневолило його душу та просто керує тілом. Жінка переживає за безпеку своєї сім'ї, їй доведеться піддати свою любов до сина, материнські інстинкти великим випробуванням. Її метою буде захистити сина та зрозуміти, що або хто є причиною цієї жахливої зміни в хлопчикові. Сара буде шукати відповіді в минулому, яке приховує багато темних таємниць. Грань між реальністю та містикою зітреться повністю.


Тривалість: 01:31:46
Якість: Blu-ray Remux 1080p

Відео:
кодек:
розмір кадру: 1920x1080
бітрейт: 31,6 Мб/с

Аудіо # 1:
мова: українська
переклад: професійний дубльований
кодек: -HD MA 5.1
бітрейт: 3248 кб/с

Аудіо # 2:
мова: українська
переклад: професійний дубльований
кодек: 5.1
бітрейт: 1536 кб/с

Аудіо # 3:
мова: українська
переклад: професійний дубльований
кодек: 5.1
бітрейт: 640 кб/с

Аудіо # 4:
мова: англійська
переклад: оригінал
кодек: 5.1
бітрейт: 640 кб/с

Аудіо # 5:
мова: англійська
переклад: оригінал
кодек: -HD MA 5.1
бітрейт: 3366 кб/с

Субтитри:
мова: англійська
тип: програмні (м'які)
формат: *.srt

Збережено оригінальні розділи, як на Blu-ray.
Info
Код:
General
Complete name                            : The Prodigy (2019) Blu-ray Remux 1080p [UKR , ENG] [ViDeO_Hurtom].
Format                                   :
Format version                           : Version 4
File size                                : 26.3 GiB
Duration                                 : 1 h 31 min
Overall bit rate mode                    : Variable
Overall bit rate                         : 41.0 Mb/s
Movie name                               : Омен: Переродження / The Prodigy (2019) Remux 1080p Ukr/Eng | Sub Eng
Encoded date                             : UTC 2020-02-06 20:45:12
Writing application                      : v30.1.0 ('Forever And More') 64-bit
Writing library                          : libebml v1.3.6 + v1.4.9
Cover                                    : Yes
Attachments                              : cover.jpg

Video
ID                                       : 1
Format                                   : AVC
Format/Info                              : Advanced Video Codec
Format profile                           : [email protected]
Format settings                          : CABAC / 4 Ref Frames
Format settings, CABAC                   : Yes
Format settings, RefFrames               : 4 frames
Codec ID                                 : V_MPEG4/ISO/AVC
Duration                                 : 1 h 31 min
Bit rate mode                            : Variable
Bit rate                                 : 31.6 Mb/s
Maximum bit rate                         : 37.5 Mb/s
Width                                    : 1 920 pixels
Height                                   : 1 080 pixels
Display aspect ratio                     : 16:9
Frame rate mode                          : Constant
Frame rate                               : 23.976 (24000/1001) FPS
Color space                              : YUV
Chroma subsampling                       : 4:2:0
Bit depth                                : 8 bits
Scan type                                : Progressive
Bits/(Pixel*Frame)                       : 0.636
Stream size                              : 20.3 GiB (77%)
Language                                 : English
Default                                  : Yes
Forced                                   : No

Audio #1
ID                                       : 2
Format                                   : XLL
Format/Info                              : Digital Theater Systems
Commercial name                          : -HD Master Audio
Codec ID                                 : A_DTS
Duration                                 : 1 h 31 min
Bit rate mode                            : Variable
Bit rate                                 : 3 248 kb/s
Channel(s)                               : 6 channels
Channel layout                           : C L R Ls Rs LFE
Sampling rate                            : 48.0 kHz
Frame rate                               : 93.750 FPS (512 SPF)
Bit depth                                : 24 bits
Compression mode                         : Lossless
Stream size                              : 2.08 GiB (8%)
Title                                    : -HD Master 5.1 | 3248 kbps
Language                                 : Ukrainian
Default                                  : Yes
Forced                                   : No

Audio #2
ID                                       : 3
Format                                   :
Format/Info                              : Digital Theater Systems
Codec ID                                 : A_DTS
Duration                                 : 1 h 31 min
Bit rate mode                            : Constant
Bit rate                                 : 1 509 kb/s
Channel(s)                               : 6 channels
Channel layout                           : C L R Ls Rs LFE
Sampling rate                            : 48.0 kHz
Frame rate                               : 93.750 FPS (512 SPF)
Bit depth                                : 24 bits
Compression mode                         : Lossy
Stream size                              : 991 MiB (4%)
Title                                    : 5.1 | 1536 kbps
Language                                 : Ukrainian
Default                                  : No
Forced                                   : No

Audio #3
ID                                       : 4
Format                                   : AC-3
Format/Info                              : Audio Coding 3
Commercial name                          : Dolby Digital
Codec ID                                 : A_AC3
Duration                                 : 1 h 31 min
Bit rate mode                            : Constant
Bit rate                                 : 640 kb/s
Channel(s)                               : 6 channels
Channel layout                           : L R C LFE Ls Rs
Sampling rate                            : 48.0 kHz
Frame rate                               : 31.250 FPS (1536 SPF)
Bit depth                                : 16 bits
Compression mode                         : Lossy
Stream size                              : 420 MiB (2%)
Title                                    : 5.1 | 640 kbps
Language                                 : Ukrainian
Service kind                             : Complete Main
Default                                  : No
Forced                                   : No

Audio #4
ID                                       : 5
Format                                   : AC-3
Format/Info                              : Audio Coding 3
Commercial name                          : Dolby Digital
Codec ID                                 : A_AC3
Duration                                 : 1 h 31 min
Bit rate mode                            : Constant
Bit rate                                 : 640 kb/s
Channel(s)                               : 6 channels
Channel layout                           : L R C LFE Ls Rs
Sampling rate                            : 48.0 kHz
Frame rate                               : 31.250 FPS (1536 SPF)
Bit depth                                : 16 bits
Compression mode                         : Lossy
Stream size                              : 420 MiB (2%)
Title                                    : 5.1 | 640 kbps
Language                                 : English
Service kind                             : Complete Main
Default                                  : No
Forced                                   : No

Audio #5
ID                                       : 6
Format                                   : XLL
Format/Info                              : Digital Theater Systems
Commercial name                          : -HD Master Audio
Codec ID                                 : A_DTS
Duration                                 : 1 h 31 min
Bit rate mode                            : Variable
Bit rate                                 : 3 366 kb/s
Channel(s)                               : 6 channels
Channel layout                           : C L R Ls Rs LFE
Sampling rate                            : 48.0 kHz
Frame rate                               : 93.750 FPS (512 SPF)
Bit depth                                : 24 bits
Compression mode                         : Lossless
Stream size                              : 2.16 GiB (8%)
Title                                    : -HD Master 5.1 | 3366 kbps
Language                                 : English
Default                                  : No
Forced                                   : No

Text
ID                                       : 7
Format                                   : UTF-8
Codec ID                                 : S_TEXT/UTF8
Codec ID/Info                            : UTF-8 Plain Text
Duration                                 : 1 h 31 min
Bit rate                                 : 43 b/s
Count of elements                        : 1154
Stream size                              : 29.3 KiB (0%)
Title                                    : SDH
Language                                 : English
Default                                  : No
Forced                                   : No

Menu
00:00:00.000                             : ru:Глава 01
00:04:05.704                             : ru:Глава 02
00:09:53.384                             : ru:Глава 03
00:12:55.441                             : ru:Глава 04
00:18:32.528                             : ru:Глава 05
00:24:20.626                             : ru:Глава 06
00:28:53.774                             : ru:Глава 07
00:33:59.913                             : ru:Глава 08
00:38:33.937                             : ru:Глава 09
00:42:10.027                             : ru:Глава 10
00:46:54.895                             : ru:Глава 11
00:50:15.429                             : ru:Глава 12
00:56:20.919                             : ru:Глава 13
01:01:39.279                             : ru:Глава 14
01:05:14.911                             : ru:Глава 15
01:09:53.523                             : ru:Глава 16
01:13:42.501                             : ru:Глава 17
01:21:23.670                             : ru:Глава 18
01:25:20.907                             : ru:Глава 19
01:26:46.368                             : ru:Глава 20
Скріншоти




Подяка пану Hanway за синхронізацію звуку.
Джерело:
Особиста оцінка: 0 - не дивився


Золотий реліз (завантажене не впливає на рейтинг)
 Трекер:    Зареєстрований   

Завантажити / скачати фільм українською



відео для новачків



 Зареєстрований:   2020-02-06 23:34
 Розмір:   26.31 GB 
 Оцінка фільму:   9/10 (Голосів: 7)
   
Інші релізи
bot 
робот


З нами з: 30.09.07
Востаннє: 26.05.05
Повідомлень: 23422

2020-02-06 23:34  
Тему перенесено з Анонси релізів до форуму Фільми в HD


antik_2008

Ваш часовий пояс: GMT + 2 Години

Нова тема   Відповісти