Омен: Переродження / The Prodigy (2019) 1080p Ukr/Eng | Sub Eng

Нові коментарі

Нова тема   Відповісти
Автор Повідомлення
Anonymous 







2020-02-06 20:23  
Омен: Переродження / The Prodigy (2019) 1080p Ukr/Eng | Sub Eng

Омен: Переродження / The Prodigy (2019) 1080p Ukr/Eng | Sub Eng


Жанр: трилер, жахи
Країна: США, Гонконг



Кінокомпанія: Orion Pictures, XYZ Films
Режисер: Ніколас МакКарті
Актори: Тейлор Шилінг, Джексон Роберт Скотт, Колм Фіоре, Пітер Муні, Пол Фото, Бріттані Аллен, Паула Бадьоро, Еліза Мулчеррі, Олуніке Аделійі, Джанет Ленд, Мартін Роуч, Байрон Абалос, Ешлі Блек, Ніколас МакКарті

Сюжет:
Молода мати Сара стурбована вельми дивною поведінкою свого восьмирічного сина Майлза. Хоч у це і важко повірити, але є відчуття, що надприродне зло поневолило його душу та просто керує тілом. Жінка переживає за безпеку своєї сім'ї, їй доведеться піддати свою любов до сина, материнські інстинкти великим випробуванням. Її метою буде захистити сина та зрозуміти, що або хто є причиною цієї жахливої зміни в хлопчикові. Сара буде шукати відповіді в минулому, яке приховує багато темних таємниць. Грань між реальністю та містикою зітреться повністю.


Тривалість: 01:31:46
Якість: 1080p
Відео:
кодек:
розмір кадру: 1920 x 804
бітрейт: 9249 кб/с

Аудіо # 1:
мова: українська
переклад: професійний дубльований
кодек: 5.1
бітрейт: 1536 кб/с

Аудіо # 2:
мова: українська
переклад: професійний дубльований
кодек: 5.1
бітрейт: 640 кб/с

Аудіо # 3:
мова: англійська
переклад: оригінал
кодек: 5.1
бітрейт: 1536 кб/с

Субтитри:
мова: англійська
тип: програмні (м'які)
формат: *.srt
Info
Код:
General
Complete name                            : The Prodigy (2019) 1080p [ukr,eng] [ViDeO_Hurtom].
Format                                   :
Format version                           : Version 4
File size                                : 8.27 GiB
Duration                                 : 1 h 31 min
Overall bit rate                         : 12.9 Mb/s
Movie name                               : Омен: Переродження / The Prodigy (2019)
Encoded date                             : UTC 2020-02-06 17:42:12
Writing application                      : v30.1.0 ('Forever And More') 64-bit
Writing library                          : libebml v1.3.6 + v1.4.9
Cover                                    : Yes
Attachments                              : cover.jpg

Video
ID                                       : 1
Format                                   : AVC
Format/Info                              : Advanced Video Codec
Format profile                           : [email protected]
Format settings                          : CABAC / 5 Ref Frames
Format settings, CABAC                   : Yes
Format settings, RefFrames               : 5 frames
Codec ID                                 : V_MPEG4/ISO/AVC
Duration                                 : 1 h 31 min
Bit rate                                 : 9 249 kb/s
Width                                    : 1 920 pixels
Height                                   : 804 pixels
Display aspect ratio                     : 2.40:1
Frame rate mode                          : Constant
Frame rate                               : 23.976 (24000/1001) FPS
Color space                              : YUV
Chroma subsampling                       : 4:2:0
Bit depth                                : 8 bits
Scan type                                : Progressive
Bits/(Pixel*Frame)                       : 0.250
Stream size                              : 5.93 GiB (72%)
Title                                    : Омен-Перерождение_The Prodigy (2019) ..1080p.NNMClub
Writing library                          : core 157 r2969 d4099dd
Encoding settings                        : cabac=1 / ref=5 / deblock=1:-3:-3 / analyse=0x3:0x133 / me=umh / subme=10 / psy=1 / psy_rd=1.00:0.25 / mixed_ref=1 / me_range=24 / chroma_me=1 / trellis=2 / 8x8dct=1 / cqm=0 / deadzone=6,6 / fast_pskip=0 / chroma_qp_offset=-4 / threads=12 / lookahead_threads=3 / sliced_threads=0 / nr=0 / decimate=0 / interlaced=0 / bluray_compat=0 / constrained_intra=0 / bframes=10 / b_pyramid=2 / b_adapt=2 / b_bias=0 / direct=1 / weightb=1 / open_gop=0 / weightp=2 / keyint=240 / keyint_min=23 / scenecut=40 / intra_refresh=0 / rc_lookahead=40 / rc=2pass / mbtree=1 / bitrate=9249 / ratetol=1.0 / qcomp=0.60 / qpmin=0 / qpmax=69 / qpstep=4 / cplxblur=20.0 / qblur=0.5 / vbv_maxrate=50000 / vbv_bufsize=62500 / nal_hrd=none / filler=0 / ip_ratio=1.10 / aq=3:0.70
Language                                 : English
Default                                  : Yes
Forced                                   : No

Audio #1
ID                                       : 2
Format                                   :
Format/Info                              : Digital Theater Systems
Codec ID                                 : A_DTS
Duration                                 : 1 h 31 min
Bit rate mode                            : Constant
Bit rate                                 : 1 509 kb/s
Channel(s)                               : 6 channels
Channel layout                           : C L R Ls Rs LFE
Sampling rate                            : 48.0 kHz
Frame rate                               : 93.750 FPS (512 SPF)
Bit depth                                : 24 bits
Compression mode                         : Lossy
Stream size                              : 991 MiB (12%)
Title                                    : 5.1 | 1536 kbps
Language                                 : Ukrainian
Default                                  : Yes
Forced                                   : No

Audio #2
ID                                       : 3
Format                                   : AC-3
Format/Info                              : Audio Coding 3
Commercial name                          : Dolby Digital
Codec ID                                 : A_AC3
Duration                                 : 1 h 31 min
Bit rate mode                            : Constant
Bit rate                                 : 640 kb/s
Channel(s)                               : 6 channels
Channel layout                           : L R C LFE Ls Rs
Sampling rate                            : 48.0 kHz
Frame rate                               : 31.250 FPS (1536 SPF)
Bit depth                                : 16 bits
Compression mode                         : Lossy
Stream size                              : 420 MiB (5%)
Title                                    : 5.1 | 640 kbps
Language                                 : Ukrainian
Service kind                             : Complete Main
Default                                  : No
Forced                                   : No

Audio #3
ID                                       : 4
Format                                   :
Format/Info                              : Digital Theater Systems
Codec ID                                 : A_DTS
Duration                                 : 1 h 31 min
Bit rate mode                            : Constant
Bit rate                                 : 1 509 kb/s
Channel(s)                               : 6 channels
Channel layout                           : C L R Ls Rs LFE
Sampling rate                            : 48.0 kHz
Frame rate                               : 93.750 FPS (512 SPF)
Bit depth                                : 24 bits
Compression mode                         : Lossy
Stream size                              : 991 MiB (12%)
Title                                    : 5.1 | 1536 kbps
Language                                 : English
Default                                  : No
Forced                                   : No

Text
ID                                       : 5
Format                                   : UTF-8
Codec ID                                 : S_TEXT/UTF8
Codec ID/Info                            : UTF-8 Plain Text
Duration                                 : 1 h 31 min
Bit rate                                 : 43 b/s
Count of elements                        : 1154
Stream size                              : 29.3 KiB (0%)
Title                                    : SDH
Language                                 : English
Default                                  : No
Forced                                   : No

Menu
00:00:00.000                             : ru:Глава 01
00:04:05.704                             : ru:Глава 02
00:09:53.384                             : ru:Глава 03
00:12:55.441                             : ru:Глава 04
00:18:32.528                             : ru:Глава 05
00:24:20.626                             : ru:Глава 06
00:28:53.774                             : ru:Глава 07
00:33:59.913                             : ru:Глава 08
00:38:33.937                             : ru:Глава 09
00:42:10.027                             : ru:Глава 10
00:46:54.895                             : ru:Глава 11
00:50:15.429                             : ru:Глава 12
00:56:20.919                             : ru:Глава 13
01:01:39.279                             : ru:Глава 14
01:05:14.911                             : ru:Глава 15
01:09:53.523                             : ru:Глава 16
01:13:42.501                             : ru:Глава 17
01:21:23.670                             : ru:Глава 18
01:25:20.907                             : ru:Глава 19
01:26:46.368                             : ru:Глава 20
Скріншоти


Подяка пану Hanway за синхронізацію звуку.

Джерело:
Особиста оцінка: 0 - не дивився


 Трекер:    Зареєстрований   

Завантажити / скачати фільм українською



відео для новачків



 Зареєстрований:   2020-02-06 20:56
 Розмір:   8.27 GB 
 Оцінка фільму:   9.7/10 (Голосів: 15)
   
Інші релізи
Anonymous 







2020-02-06 20:57  
Реліз готовий!
Ваш часовий пояс: GMT + 2 Години

Нова тема   Відповісти