Піймай свою хвилю / Kimi to, Nami ni Noretara (2019) 720р Jap | sub Ukr

Нові коментарі

Нова тема   Відповісти
Останній раз роздавалося Gwean (2020-04-04)
Автор Повідомлення
AniSky 
Новенький


З нами з: 13.01.17
Востаннє: 03.04.20
Повідомлень: 23

2020-02-06 15:46  
Піймай свою хвилю / Kimi to, Nami ni Noretara (2019) 720р Jap | sub Ukr

Піймай свою хвилю / Kimi to, Nami ni Noretara (2019) 720р Jap | sub Ukr


Жанр: романтика, драма
Країна: Японія



Кінокомпанія: Science Saru
Режисер: Масаакі Юаса
Актори озвучення: Катайодзе Рьота, Каваей Ріна, Мацумото Хонока, Іто Кентаро.
Сюжет:
Хінако вступає до університету і переїжджає у прибрежне місто. Вона дуже любить серфінг і на хвилях почувається впевнено, однак невизначеність майбутнього все ще хвилює її. Коли пожежа сіє хаос в містечку, Хінако знайомиться з юним пожежником Мінато. Поки вони займаються серфінгом і проводять чимало часу разом, дівчина починає відчувати, що їй подобається Мінато, який присвятив життя допомозі іншим. У свою чергу Хінако теж посідає особливе місце в серці парубка.


Тривалість: 01:35:18
Якість:
Відео:
кодек: Н.264
розмір кадру: 1280 х 720
бітрейт: 2 393 кб/с

Аудіо:
мова: японська
переклад: оригінал
кодек: ААС 2.0
бітрейт: 232 кб/с

Субтитри:
мова: українська
тип: програмні (м'які)
формат: *.
Info


Video
ID : 1
Format : AVC
Format/Info : Advanced Video Codec
Format profile : High [email protected]
Format settings : CABAC / 16 Ref Frames
Format settings, CABAC : Yes
Format settings, ReFrames : 16 frames
Codec ID : V_MPEG4/ISO/AVC
Duration : 1 h 35 min
Bit rate : 2 393 kb/s
Width : 1 280 pixels
Height : 720 pixels
Display aspect ratio : 16:9
Frame rate mode : Constant
Frame rate : 23.976 (24000/1001) FPS
Color space : YUV
Chroma subsampling : 4:2:0
Bit depth : 10 bits
Scan type : Progressive
Bits/(Pixel*Frame) : 0.108
Stream size : 1.59 GiB (91%)
Title : encode by neko-shi
Writing library : core 155 r2901M 7d0ff22 (DJATOM's mod)
Encoding settings : cabac=1 / ref=16 / deblock=1:1:1 / analyse=0x3:0x113 / me=umh / subme=10 / psy=1 / fade_compensate=0.00 / psy_rd=0.90:0.00 / mixed_ref=1 / me_range=32 / chroma_me=1 / trellis=2 / 8x8dct=1 / cqm=0 / deadzone=21,11 / fast_pskip=1 / chroma_qp_offset=-2 / threads=12 / lookahead_threads=3 / sliced_threads=0 / nr=0 / decimate=1 / interlaced=0 / bluray_compat=0 / constrained_intra=0 / bframes=16 / b_pyramid=2 / b_adapt=2 / b_bias=0 / direct=1 / weightb=1 / open_gop=0 / weightp=2 / keyint=240 / keyint_min=23 / scenecut=40 / intra_refresh=0 / rc=crf / mbtree=0 / crf=16.0000 / qcomp=0.70 / qpmin=0 / qpmax=81 / qpstep=4 / ip_ratio=1.40 / pb_ratio=1.30 / aq=3:1.00
Default : Yes
Forced : No
Color range : Limited
Color primaries : BT.709
Transfer characteristics : BT.709
Matrix coefficients : BT.709

Audio
ID : 2
Format :
Format/Info : Advanced Audio Codec
Format profile : LC
Codec ID : A_AAC-2
Duration : 1 h 35 min
Bit rate : 232 kb/s
Channel(s) : 2 channels
Channel positions : Front: L R
Sampling rate : 48.0 kHz
Frame rate : 46.875 FPS (1024 SPF)
Compression mode : Lossy
Stream size : 158 MiB (9%)
Title : 2.0
Language : Japanese
Default : Yes
Forced : Yes

Text
ID : 3
Format :
Codec ID : S_TEXT/
Codec ID/Info : Advanced Sub Station Alpha
Duration : 1 h 34 min
Bit rate : 134 b/s
Count of elements : 1430
Compression mode : Lossless
Stream size : 93.2 KiB (0%)
Language : Ukrainian
Default : Yes
Forced : Yes

Menu
00:00:00.000 : :Chapter 01
00:12:03.640 : :Chapter 02
00:31:22.005 : :Chapter 03
00:33:20.665 : :Chapter 04
00:52:44.328 : :Chapter 05
01:00:44.933 : :Chapter 06
01:13:37.622 : :Chapter 07
01:28:15.123 : :Chapter 08
Скріншоти





Переклад: AniSky



Джерело:
Особиста оцінка: 8 - Мені сподобалося!


Золотий реліз (завантажене не впливає на рейтинг)
 Трекер:    Зареєстрований   

Завантажити / скачати аніме українською



відео для новачків



 Зареєстрований:   2020-02-22 22:29
 Розмір:   1.75 GB 
 Оцінка аніме:   9/10 (Голосів: 5)
   
bot 
робот


З нами з: 30.09.07
Востаннє: 26.05.05
Повідомлень: 23767

2020-02-22 22:28  
Тему перенесено з Анонси релізів до форуму Аніме


AniSky

Ваш часовий пояс: GMT + 2 Години

Нова тема   Відповісти