Смерть їй личить / Смерть їй пасує / Death Becomes Her (1992) 1080p H.265 2xUkr/Eng | Sub Eng

Нові коментарі

Нова тема   Відповісти
Автор Повідомлення
Anonymous 







2020-02-06 01:20  
Смерть їй личить / Смерть їй пасує / Death Becomes Her (1992) 1080p H.265 2xUkr/Eng | Sub Eng

Смерть їй личить / Смерть їй пасує / Death Becomes Her (1992) 1080p H.265 2xUkr/Eng | Sub Eng


Жанр: комедія, фентезі
Країна: США
Кінокомпанія: Universal Pictures
Режисер: Роберт Земекіс (Robert Zemeckis)
Актори: Меріл Стріп (Meryl Streep), Брюс Вілліс (Bruce Willis), Ґолді Хоун (Goldie Hawn), Ізабелла Роззелліні (Isabella Rossellini), Ненсі Фіш (Nancy Fish), Мішель Джонсон (Michelle Johnson) та інші.

Сюжет:
Маловідома актриса Меделін Ештон (Меріл Стріп) відбиває у своєї подруги (Ґолді Гоун) нареченого, відомого хірурга-косметолога Ернеста (Брюс Вілліс). Однак ображена жінка знаходить спосіб помститися: стає членом таємного товариства, яке вживає еліксир вічної молодості. Ставши коханкою Ернеста, вона планує вбити Меделін. Ситуація ще більше ускладнюється, коли остання також починає вживати еліксир. Виявляється, що разом з вічною юністю жінки здобули безсмертя, і їх уже не можуть зупинити навіть смертельні поранення... Непоганий зразок "чорної" комедії з чудовим акторським тріо. Фільм отримав премію "Оскар" за вражаючі спецефекти.

Тривалість: 01:43:21
Якість:

Відео:
кодек: H.265 (HEVC)
розмір кадру: 1920 x 1040
бітрейт: 8 210 кб/с
бітова глибина: 10 біт

Увага! Перед завантаженням переконайтесь, що ваш пристрій відтворення (та/або ПЗ) підтримує H.265 (HEVC)

Аудіо # 1:
мова: українська
переклад: багатоголосий закадровий
кодек: AC-3 2.0
бітрейт: 192 кб/с

Аудіо # 2:
мова: українська
переклад: двоголосий закадровий
кодек: AC-3 2.0
бітрейт: 192 кб/с

Аудіо # 3:
мова: англійська
переклад: оригінал
кодек: 5.1
бітрейт: 1510 кб/с

Субтитри # 1: (Full)
мова: англійська
тип: програмні (м'які)
формат: *.srt


Info
Код:
General
Unique ID                                : 271220726858866065171709971668260674768 (0xCC0B3641AC623CC40C5AD98C87B0DCD0)
Complete name                            : Death Becomes Her (1992) 1080p H.265 [2xUKR_ENG] [Hurtom].
Format                                   :
Format version                           : Version 4
File size                                : 7.30 GiB
Duration                                 : 1 h 43 min
Overall bit rate                         : 10.1 Mb/s
Movie name                               : Смерть їй личить / Смерть їй пасує / Death Becomes Her (1992)
Encoded date                             : UTC 2020-02-05 22:43:25
Writing application                      : v20.0.0 ('I Am The Sun') 64-bit
Writing library                          : libebml v1.3.5 + v1.4.8
Cover                                    : Yes
Attachments                              : Cover.jpg

Video
ID                                       : 1
Format                                   : HEVC
Format/Info                              : High Efficiency Video Coding
Format profile                           : Main [email protected]@High
Codec ID                                 : V_MPEGH/ISO/HEVC
Duration                                 : 1 h 43 min
Bit rate                                 : 8 210 kb/s
Width                                    : 1 920 pixels
Height                                   : 1 040 pixels
Display aspect ratio                     : 1.85:1
Frame rate mode                          : Constant
Frame rate                               : 23.976 (24000/1001) FPS
Color space                              : YUV
Chroma subsampling                       : 4:2:0
Bit depth                                : 10 bits
Bits/(Pixel*Frame)                       : 0.171
Stream size                              : 5.93 GiB (81%)
Title                                    : Смерть їй личить / Смерть їй пасує / Death Becomes Her (1992)
Writing library                          : x265 3.2+5-354901970679:[Windows][clang 8.0.1][64 bit] 10bit
Encoding settings                        : cpuid=1111039 / frame-threads=9 / numa-pools=8 / wpp / no-pmode / no-pme / no-psnr / no-ssim / log-level=3 / input-csp=1 / input-res=1920x1040 / interlace=0 / total-frames=0 / level-idc=41 / high-tier=1 / uhd-bd=0 / ref=5 / allow-non-conformance / no-repeat-headers / annexb / aud / no-hrd / info / hash=0 / no-temporal-layers / open-gop / min-keyint=23 / keyint=240 / gop-lookahead=0 / bframes=10 / b-adapt=2 / b-pyramid / bframe-bias=0 / rc-lookahead=60 / lookahead-slices=1 / scenecut=40 / radl=0 / no-splice / no-intra-refresh / ctu=32 / min-cu-size=8 / rect / amp / max-tu-size=32 / tu-inter-depth=4 / tu-intra-depth=4 / limit-tu=0 / rdoq-level=2 / dynamic-rd=0.00 / no-ssim-rd / signhide / no-tskip / nr-intra=0 / nr-inter=0 / no-constrained-intra / no-strong-intra-smoothing / max-merge=5 / limit-refs=3 / limit-modes / me=3 / subme=7 / merange=57 / temporal-mvp / no-frame-dup / no-hme / weightp / weightb / no-analyze-src-pics / deblock=-2:-2 / no-sao / no-sao-non-deblock / rd=6 / selective-sao=0 / no-early-skip / no-rskip / no-fast-intra / no-tskip-fast / no-cu-lossless / no-b-intra / no-splitrd-skip / rdpenalty=0 / psy-rd=2.00 / psy-rdoq=1.00 / no-rd-refine / no-lossless / cbqpoffs=0 / crqpoffs=0 / rc=crf / crf=19.0 / qcomp=0.70 / qpstep=4 / stats-write=0 / stats-read=0 / vbv-maxrate=50000 / vbv-bufsize=50000 / vbv-init=0.9 / crf-max=30.0 / crf-min=0.0 / ipratio=1.40 / pbratio=1.30 / aq-mode=4 / aq-strength=1.00 / no-cutree / zone-count=0 / no-strict-cbr / qg-size=32 / no-rc-grain / qpmax=69 / qpmin=0 / no-const-vbv / sar=1 / overscan=0 / videoformat=5 / range=0 / colorprim=2 / transfer=2 / colormatrix=2 / chromaloc=0 / display-window=0 / cll=0,0 / min-luma=0 / max-luma=1023 / log2-max-poc-lsb=8 / vui-timing-info / vui-hrd-info / slices=1 / no-opt-qp-pps / no-opt-ref-list-length-pps / no-multi-pass-opt-rps / scenecut-bias=0.05 / no-opt-cu-delta-qp / no-aq-motion / no-hdr / no-hdr-opt / no-dhdr10-opt / no-idr-recovery-sei / analysis-reuse-level=5 / scale-factor=0 / refine-intra=0 / refine-inter=0 / refine-mv=1 / refine-ctu-distortion=0 / no-limit-sao / ctu-info=0 / no-lowpass-dct / refine-analysis-type=0 / copy-pic=1 / max-ausize-factor=1.0 / no-dynamic-refine / no-single-sei / no-hevc-aq / no-svt / no-field / qp-adaptation-range=2.00
Language                                 : English
Default                                  : Yes
Forced                                   : No
Color range                              : Limited

Audio #1
ID                                       : 2
Format                                   : AC-3
Format/Info                              : Audio Coding 3
Commercial name                          : Dolby Digital
Codec ID                                 : A_AC3
Duration                                 : 1 h 43 min
Bit rate mode                            : Constant
Bit rate                                 : 192 kb/s
Channel(s)                               : 2 channels
Channel layout                           : L R
Sampling rate                            : 48.0 kHz
Frame rate                               : 31.250 FPS (1536 SPF)
Compression mode                         : Lossy
Stream size                              : 142 MiB (2%)
Title                                    : / 2.0 Ch / 192 kbps / БЗ / Kanal Ukraina
Language                                 : Ukrainian
Service kind                             : Complete Main
Default                                  : Yes
Forced                                   : Yes

Audio #2
ID                                       : 3
Format                                   : AC-3
Format/Info                              : Audio Coding 3
Commercial name                          : Dolby Digital
Codec ID                                 : A_AC3
Duration                                 : 1 h 43 min
Bit rate mode                            : Constant
Bit rate                                 : 192 kb/s
Channel(s)                               : 2 channels
Channel layout                           : L R
Sampling rate                            : 48.0 kHz
Frame rate                               : 31.250 FPS (1536 SPF)
Compression mode                         : Lossy
Stream size                              : 142 MiB (2%)
Title                                    : / 2.0 Ch / 192 kbps / ДЗ / Novy Kanal
Language                                 : Ukrainian
Service kind                             : Complete Main
Default                                  : No
Forced                                   : No

Audio #3
ID                                       : 4
Format                                   :
Format/Info                              : Digital Theater Systems
Codec ID                                 : A_DTS
Duration                                 : 1 h 43 min
Bit rate mode                            : Constant
Bit rate                                 : 1 509 kb/s
Channel(s)                               : 6 channels
Channel layout                           : C L R Ls Rs LFE
Sampling rate                            : 48.0 kHz
Frame rate                               : 93.750 FPS (512 SPF)
Bit depth                                : 24 bits
Compression mode                         : Lossy
Stream size                              : 1.09 GiB (15%)
Title                                    : / 5.1 Ch / 1509 kbps / Original
Language                                 : English
Default                                  : No
Forced                                   : No

Text
ID                                       : 5
Format                                   : UTF-8
Codec ID                                 : S_TEXT/UTF8
Codec ID/Info                            : UTF-8 Plain Text
Duration                                 : 1 h 36 min
Bit rate                                 : 37 b/s
Count of elements                        : 802
Stream size                              : 26.5 KiB (0%)
Title                                    : Full
Language                                 : English
Default                                  : No
Forced                                   : No

Menu
00:00:00.000                             : :Main Titles: Broadway 1978
00:05:04.513                             : :Mad and Hel
00:09:01.541                             : :7 Years Later
00:12:35.380                             : :Another 7 Years Later
00:20:40.739                             : :Helen's Party
00:26:46.772                             : :Secret Plots and Second Thoughts
00:30:20.110                             : :Lisle
00:47:09.243                             : :The Fall and Rise of Madeline Ashton
00:55:55.269                             : :A Medical Miracle
01:05:51.489                             : :Helen Has a Blast
01:09:55.858                             : :Gut Reactions
01:15:40.953                             : :Touch-Ups
01:25:01.888                             : :The Party
01:32:54.402                             : :37 Years Later
01:36:13.226                             : :Going to Pieces
01:37:35.600                             : :End Titles
Світлини




Джерело: &
Особиста оцінка: 0 - не дивився


Срібний реліз (на рейтинг впливає 50% завантаженого)
 Трекер:    Зареєстрований   

Завантажити / скачати фільм українською



відео для новачків



 Зареєстрований:   2020-02-06 01:20
 Розмір:   7.3 GB 
 Оцінка фільму:   10/10 (Голосів: 7)
   
don pedro 
Попереджень: 1
Попереджень: 1 


З нами з: 29.06.11
Востаннє: 25.02.21
Повідомлень: 18831

2020-02-06 01:24  
Це було ще у ті чудові часи, коли Вілліс ще не увірував у себе як у героя бойовика.
MakRA 
VIP


З нами з: 10.11.18
Востаннє: 25.02.21
Повідомлень: 1183

2020-02-06 01:30  
Класний фільм, шикарнючий чорний гумор!)
don pedro написано:
Це було ще у ті чудові часи, коли Вілліс ще не увірував у себе як у героя бойовика

Ну таке) вже було два "Міцних горішки", "Гудзонський яструб", "Останній бойскаут"

Додано через 1 хвилину 13 секунд:

+ Remux 1080p

don pedro 
Попереджень: 1
Попереджень: 1 


З нами з: 29.06.11
Востаннє: 25.02.21
Повідомлень: 18831

2020-02-06 01:33  
MakRA
Це комедії.

MakRA 
VIP


З нами з: 10.11.18
Востаннє: 25.02.21
Повідомлень: 1183

2020-02-06 01:36  
Добре, нехай останнє слово буде за паном don pedro Happy
+380954897458 
VIP


З нами з: 02.06.17
Востаннє: 25.02.21
Повідомлень: 1101

2020-02-06 17:09  
Вибачте, але все моє єство проти того, щоб називати "Міцні горішки" і "Останній бойскаут" комедіями. Це справжнісінькі стовідсоткові бойовики. Хоча в них присутній гумор, але до комедійного жанру вони не належать. А от "Гудзонський яструб" сміливо можна називати комедією.
Ваш часовий пояс: GMT + 2 Години

Нова тема   Відповісти