Сміливці / The Bravest / Lie huo ying xiong (2019) 1080p Chi | Sub Ukr/Eng

Нові коментарі

Нова тема   Відповісти
Автор Повідомлення
Anonymous 







2020-02-05 21:08  
Сміливці / The Bravest / Lie huo ying xiong (2019) 1080p Chi | Sub Ukr/Eng

Альтернативні постери:











Жанр: екшн, драма, пригодницький
Країна: Китай



Кінокомпанія: Bona Film Group, Columbia Films, Alibaba Pictures
Режисер: Тоні Чан / Tony Chan
Актори: Гуан Сяомінґ / Xiaoming Huang, Ду Цзян / Jiang Du, Тань Чжо / Zhuo Tan, Ян Цзи / Zi Yang, Охо Оу / Hao Ou, Хоу Юн / Yong Hou, Інь Сяотянь / Xiaotian Yin, Джейсон Гу / Jason Gu, Чжан Чжехань / Zhehan Zhang, Гао Ге / Ge Gao та інші.

Сюжет:
Цсян Лівей (Гуан Сяомінґ) – наймолодший керівник спеціального пожежного батальйону за всю історію пожежних бригад провінції. Під час гасіння пожежі зухвалий Цсян ігнорує протоколи місії, що призводить до вибуху газу, від якого гине молодий пожежник. За це його позбавили звання та понизили до керування маленьким та непримітним підрозділом у передмісті Донґшань. Натомість керівником спеціального батальйону пожежників призначили Ма Вейґуо (Ду Цзян), його заступника. Одного дня Цзян Лівей отримує екстрений виклик з пожежної частини міста. Стався вибух на нафтобазі Бінґанґ у районі міського порту. Усі пожежні команди міста та провінції були мобілізовані для гасіння пожежі. Цзян Лівей повинен забути про свої образи та об'єднатися зі своїм колишнім підлеглим Ма Вейґуо заради порятунку міста.
Офіційний трейлер:

Рейтинг MPAA: PG-13 - дітям до 13 років перегляд не бажаний

Тривалість: 01:58:59
Якість: 1080p [GooglePlay]

Відео:
кодек:
розмір кадру: 1920х1080
бітрейт: 7496 кб/с

Аудіо:
мова: китайська (мандаринська)
переклад: оригінал
кодек: 5.1
бітрейт: 384 кб/с

Субтитри # 1:
мова: українська
тип: програмні (м'які)
формат: *.srt
переклад: офіційний, Elena Astankova

Субтитри # 2:
мова: англійська
тип: програмні (м'які)
формат: *.srt
Info
Код:

Complete name               : The Bravest (Lie huo ying xiong) (2019) [Chi sub.Ukr,Eng] 1080p [Hurtom].
Format                      :
Format version              : Version 4
File size                   : 6.55 GiB
Duration                    : 1 h 58 min
Overall bit rate            : 7 882 kb/s
Movie name                  : Сміливці / The Bravest / Lie huo ying xiong (2019) [Chi sub.Ukr,Eng] 1080p [Hurtom]
Encoded date                : UTC 2020-02-05 20:36:52
Writing application         : v43.0.0 ('The Quartermaster') 64-bit
Writing library             : libebml v1.3.10 + v1.5.2
Cover                       : Yes
Attachments                 : cover.jpg

Video
ID                          : 1
Format                      : AVC
Format/Info                 : Advanced Video Codec
Format profile              : [email protected]
Format settings             : CABAC / 2 Ref Frames
Format settings, CABAC      : Yes
Format settings, Reference  : 2 frames
Codec ID                    : V_MPEG4/ISO/AVC
Duration                    : 1 h 58 min
Bit rate                    : 7 496 kb/s
Width                       : 1 920 pixels
Height                      : 1 080 pixels
Display aspect ratio        : 16:9
Frame rate mode             : Constant
Frame rate                  : 23.976 (24000/1001) FPS
Color space                 : YUV
Chroma subsampling          : 4:2:0
Bit depth                   : 8 bits
Scan type                   : Progressive
Bits/(Pixel*Frame)          : 0.151
Stream size                 : 6.23 GiB (95%)
Title                       : Сміливці / The Bravest / Lie huo ying xiong (2019) 1080p
Language                    : Chinese
Default                     : Yes
Forced                      : No
Color range                 : Limited
Color primaries             : BT.709
Transfer characteristics    : BT.709
Matrix coefficients         : BT.709

Audio
ID                          : 2
Format                      : AC-3
Format/Info                 : Audio Coding 3
Commercial name             : Dolby Digital
Codec ID                    : A_AC3
Duration                    : 1 h 58 min
Bit rate mode               : Constant
Bit rate                    : 384 kb/s
Channel(s)                  : 6 channels
Channel layout              : L R C LFE Ls Rs
Sampling rate               : 48.0 kHz
Frame rate                  : 31.250 FPS (1536 SPF)
Compression mode            : Lossy
Stream size                 : 327 MiB (5%)
Title                       : Original, 5.1 384 Kbps
Language                    : Chinese
Service kind                : Complete Main
Default                     : Yes
Forced                      : No

Text #1
ID                          : 3
Format                      : UTF-8
Codec ID                    : S_TEXT/UTF8
Codec ID/Info               : UTF-8 Plain Text
Duration                    : 1 h 57 min
Bit rate                    : 60 b/s
Count of elements           : 1232
Stream size                 : 51.9 KiB (0%)
Title                       : Ukr Full [iTunes]
Language                    : Ukrainian
Default                     : Yes
Forced                      : Yes

Text #2
ID                          : 4
Format                      : UTF-8
Codec ID                    : S_TEXT/UTF8
Codec ID/Info               : UTF-8 Plain Text
Duration                    : 1 h 49 min
Bit rate                    : 30 b/s
Count of elements           : 1002
Stream size                 : 24.7 KiB (0%)
Title                       : Eng Full
Language                    : English
Default                     : No
Forced                      : No
Скріншоти






Джерело: &


 Трекер:    Зареєстрований   

Завантажити / скачати фільм українською



відео для новачків



 Зареєстрований:   2020-02-05 22:50
 Розмір:   6.55 GB 
 Оцінка фільму:   9/10 (Голосів: 3)
 ЗАЛИШАЙТЕСЬ ЯКОМОГА ДОВШЕ НА РОЗДАЧІ! ЗАВАНТАЖИВ САМ - ДАЙ ЗАВАНТАЖИТИ ІНШИМ!
   
bot 
робот


З нами з: 30.09.07
Востаннє: 26.05.05
Повідомлень: 23379

2020-02-05 22:50  
Тему перенесено з Анонси релізів до форуму Фільми


igor911

selb 
Відео Гуртом - підтримка та поширення
Відео Гуртом - підтримка та поширення


З нами з: 13.01.16
Востаннє: 25.02.20
Повідомлень: 522

2020-02-08 21:40  
Anonymous написано:
назначали
призначили

Якість перекладу — жесть... Гугл переклад... Сам фільм сподобався.

Anonymous 







2020-02-08 21:53  
selb написано:
Гугл переклад...

Тут це в буквальному значенні, оскільки джерелом як я зрозумів є "Google Play".
Цікаво було б порівняти з сабами з тюнсу, там наче поки не траплявся лажовий переклад.

Ваш часовий пояс: GMT + 2 Години

Нова тема   Відповісти