21 міст / 21 Bridges (2019) 1080p Ukr/Eng | Sub Eng

Нові коментарі

Нова тема   Відповісти
Автор Повідомлення
Anonymous 







2020-02-05 21:13  
21 міст / 21 Bridges (2019) 1080p Ukr/Eng | Sub Eng


«Від нього не втекти»



Жанр: бойовик, драма, кримінальний, трилер
Країна: США



Кінокомпанія: AGBO, Huayi Brothers, MWM Studios
Режисер: Брайан Кірк
Актори: Чедвік Боузман, Сієнна Міллер,Тейлор Кітч, Дж. К. Сіммонс, Кіт Девід, Стівен Джеймс, Крістіан Айзіа

Сюжет:
Знаменитий детектив нью-йоркської поліції стає учасником масштабної операції з полювання на вбивць двох поліцейських. Коли ситуація загострюється, влада вирішує вжити надзвичайних заходів, щоб не дати вбивцям піти з Мангеттена, — вперше в історії перекрити для руху усі 21 міст острова. Тепер, коли Мангеттен заблокований на в'їзд та виїзд, герою доведеться самостійно з'ясувати, хто є хто в цьому місті.


Тривалість: 01:39:57
Якість: 1080p

Відео:
кодек:
розмір кадру: 1920x804
бітрейт: 14500 кб/с

Аудіо # 1:
мова: українська
переклад: професійний дубльований
кодек: 2.0 (стерео)
бітрейт: 192 кб/с

Аудіо # 2:
мова: англійська
переклад: оригінал
кодек: 5.1
бітрейт: 640 кб/с

Субтитри: (Full, SDH)
мова: англійська
тип: програмні (м'які)
формат: *.srt
Info
Код:
General
Complete name                            : 21 Bridges (2019) 1080p [ukr,eng] [ViDeO_Hurtom].
Format                                   :
Format version                           : Version 4
File size                                : 10.7 GiB
Duration                                 : 1 h 39 min
Overall bit rate                         : 15.3 Mb/s
Encoded date                             : UTC 2020-02-09 20:09:34
Writing application                      : v30.1.0 ('Forever And More') 64-bit
Writing library                          : libebml v1.3.6 + v1.4.9
Cover                                    : Yes
Attachments                              : cover.jpg

Video
ID                                       : 1
Format                                   : AVC
Format/Info                              : Advanced Video Codec
Format profile                           : [email protected]
Format settings                          : CABAC / 4 Ref Frames
Format settings, CABAC                   : Yes
Format settings, RefFrames               : 4 frames
Codec ID                                 : V_MPEG4/ISO/AVC
Duration                                 : 1 h 39 min
Bit rate                                 : 14.5 Mb/s
Width                                    : 1 920 pixels
Height                                   : 804 pixels
Display aspect ratio                     : 2.40:1
Frame rate mode                          : Constant
Frame rate                               : 23.976 (24000/1001) FPS
Color space                              : YUV
Chroma subsampling                       : 4:2:0
Bit depth                                : 8 bits
Scan type                                : Progressive
Bits/(Pixel*Frame)                       : 0.392
Stream size                              : 10.1 GiB (95%)
Title                                    : CHD
Writing library                          : core 157 r2867+150 7e91e0e t_mod_Custom_2 [[email protected] X86_64]
Encoding settings                        : cabac=1 / ref=4 / deblock=1:-3:-3 / analyse=0x3:0x133 / me=umh / subme=11 / psy=1 / fade_compensate=0.00 / psy_rd=0.90:0.10 / mixed_ref=1 / me_range=64 / chroma_me=1 / trellis=2 / 8x8dct=1 / cqm=0 / deadzone=21,11 / fast_pskip=0 / chroma_qp_offset=-4 / threads=25 / lookahead_threads=4 / sliced_threads=0 / nr=0 / decimate=1 / interlaced=0 / bluray_compat=0 / constrained_intra=0 / fgo=0 / bframes=8 / b_pyramid=2 / b_adapt=2 / b_bias=0 / direct=3 / weightb=1 / open_gop=0 / weightp=2 / keyint=250 / keyint_min=23 / scenecut=40 / intra_refresh=0 / rc_lookahead=60 / rc=crf / mbtree=0 / crf=18.0000 / qcomp=0.70 / qpmin=0:0:0 / qpmax=69:69:69 / qpstep=4 / vbv_maxrate=35000 / vbv_bufsize=35000 / crf_max=0.0 / nal_hrd=none / filler=0 / ip_ratio=1.40 / pb_ratio=1.30 / aq=3:1.00 / aq-sensitivity=10.00 / aq-factor=1.00:1.00:1.00 / aq2=0 / aq3=0
Language                                 : English
Default                                  : Yes
Forced                                   : No

Audio #1
ID                                       : 2
Format                                   : AC-3
Format/Info                              : Audio Coding 3
Commercial name                          : Dolby Digital
Codec ID                                 : A_AC3
Duration                                 : 1 h 39 min
Bit rate mode                            : Constant
Bit rate                                 : 192 kb/s
Channel(s)                               : 2 channels
Channel layout                           : L R
Sampling rate                            : 48.0 kHz
Frame rate                               : 31.250 FPS (1536 SPF)
Bit depth                                : 16 bits
Compression mode                         : Lossy
Stream size                              : 137 MiB (1%)
Title                                    : 2.0 | 192
Language                                 : Ukrainian
Service kind                             : Complete Main
Default                                  : Yes
Forced                                   : No

Audio #2
ID                                       : 3
Format                                   : AC-3
Format/Info                              : Audio Coding 3
Commercial name                          : Dolby Digital
Codec ID                                 : A_AC3
Duration                                 : 1 h 39 min
Bit rate mode                            : Constant
Bit rate                                 : 640 kb/s
Channel(s)                               : 6 channels
Channel layout                           : L R C LFE Ls Rs
Sampling rate                            : 48.0 kHz
Frame rate                               : 31.250 FPS (1536 SPF)
Bit depth                                : 16 bits
Compression mode                         : Lossy
Stream size                              : 458 MiB (4%)
Title                                    : 5.1 | 640
Language                                 : English
Service kind                             : Complete Main
Default                                  : No
Forced                                   : No

Text #1
ID                                       : 4
Format                                   : UTF-8
Codec ID                                 : S_TEXT/UTF8
Codec ID/Info                            : UTF-8 Plain Text
Duration                                 : 1 h 29 min
Bit rate                                 : 52 b/s
Count of elements                        : 1116
Stream size                              : 34.5 KiB (0%)
Title                                    : Full
Language                                 : English
Default                                  : No
Forced                                   : No

Text #2
ID                                       : 5
Format                                   : UTF-8
Codec ID                                 : S_TEXT/UTF8
Codec ID/Info                            : UTF-8 Plain Text
Duration                                 : 1 h 30 min
Bit rate                                 : 56 b/s
Count of elements                        : 1249
Stream size                              : 37.6 KiB (0%)
Title                                    : SDH
Language                                 : English
Default                                  : No
Forced                                   : No

Menu
00:00:00.000                             : :Chapter 01
00:03:16.196                             : :Chapter 02
00:07:48.510                             : :Chapter 03
00:11:59.344                             : :Chapter 04
00:16:54.722                             : :Chapter 05
00:22:33.143                             : :Chapter 06
00:30:54.561                             : :Chapter 07
00:34:50.046                             : :Chapter 08
00:40:16.414                             : :Chapter 09
00:44:39.719                             : :Chapter 10
00:50:54.718                             : :Chapter 11
00:54:04.408                             : :Chapter 12
00:58:52.320                             : :Chapter 13
01:02:08.600                             : :Chapter 14
01:06:19.601                             : :Chapter 15
01:10:27.557                             : :Chapter 16
01:16:19.617                             : :Chapter 17
01:19:19.755                             : :Chapter 18
01:25:15.110                             : :Chapter 19
01:32:34.382                             : :Chapter 20
Скріншоти




Джерело:
Особиста оцінка: 8 - мені сподобалося


 Трекер:    Зареєстрований   

Завантажити / скачати фільм українською



відео для новачків



 Зареєстрований:   2020-02-10 00:15
 Розмір:   10.72 GB 
 Оцінка фільму:   9.6/10 (Голосів: 80)
   
Інші релізи
   21 міст / 21 Bridges (2019) UHD Remux 4K 2160p HDR H.265 Ukr/Eng | Sub Eng MediumHD  5 / 0   51.65 GB   2020-06-16 16:23 
   21 міст / 21 Bridges (2019) 1080p H.265 Ukr/Eng | Sub Eng -Star-Lord-  15 / 0   6.37 GB   2020-02-11 01:20 
   21 міст / 21 Bridges (2019) Remux 1080p Ukr/Eng | Sub Eng antik_2008  8 / 0   24.88 GB   2020-02-10 00:36 
   21 міст / 21 Bridges (2019) AVC Ukr/Eng | Sub Eng 11FrYkT  50 / 0   1.72 GB   2020-02-10 00:17 
   21 міст / 21 Bridges (2019) 720p Ukr/Eng | Sub Eng antik_2008  8 / 0   4.39 GB   2020-02-10 00:16 
   21 міст / 21 Bridges (2019) Ukr/Eng antik_2008  13 / 0   1.95 GB   2020-02-10 00:13 
   21 міст / 21 Bridges (2019) 4K 2160p H.265 Ukr/Eng | Sub Eng antik_2008  2 / 0   17.63 GB   2020-02-09 00:19 
Custo 12 
Свій


З нами з: 08.11.16
Востаннє: 28.07.20
Повідомлень: 145

2020-02-08 12:54  
Досить пристойний фільм. Давно не було чогось схожого. Рекомендую.
ptv.inet 
Новенький


З нами з: 07.08.16
Востаннє: 03.08.20
Повідомлень: 2

2020-02-09 00:20  
Хорошая озвучка, все слышно и голоса в тему. Спасибо.
igor911 
Модератор відео


З нами з: 18.01.08
Востаннє: 07.08.20
Повідомлень: 14936

2020-02-09 00:45  
ptv.inet, зауваж - в нас спілкування ведеться українською мовою
Цитата:
2. Правила та обмеження форуму

Всім без винятку заборонено:
2.1 Спілкуватися іншою мовою, аніж літературною українською

Preston7 
Новенький


З нами з: 08.01.17
Востаннє: 07.07.20
Повідомлень: 1

2020-02-09 13:47  
Взагалі не планував дивитися це кіно, але через відсутність альтернативи подивився і дуже радий з цього, бо кіно (на мою думку) в п'ятірці кращих у 2019 році. Отримав реальне задоволення від перегляду, а це (враховуючи що зараз знімають) велика рідкість, 8 з 10 і це надвисока оцінка. Раджу всім чоловікам.
Anonymous 







2020-02-10 00:15  
Заміна торент файлу. Відео оновлено до якості

besconst 
Свій


З нами з: 10.03.12
Востаннє: 07.08.20
Повідомлень: 55

2020-02-10 18:29  
розвеселив переклад. The Sopranos just a TV show - Я в цьому сумніваюсь. Так ніби у нас ніхто не чув про Сопрано. іще: He's ain't like me. - Він мене не любить))) раптом на третьому акті, з легкої руки локалізаторів, бойовик перетворився на ґей-драму))
AlexKonowal 
Новенький


З нами з: 05.02.13
Востаннє: 05.08.20
Повідомлень: 5

2020-02-14 19:45  
Та таке, один раз подивитися можна.
0mage0 
VIP


З нами з: 06.10.15
Востаннє: 07.08.20
Повідомлень: 688

2020-02-20 09:56  
Фільм дивитися можна.
Хоча у мене великі сумніви, що йому вдалося б пояснити вбивство п'яти копів в кінці цією флешкою. Таке відчуття, що якби тітка його в кінці пришила, то її виправдали б, вона б сказала, що той збісився і почав стріляти копів, ось вона його і пристрелила, а дані з флешки — то все наклеп. А якщо йому дійсно повірили й дані з флешки когось зацікавили, то чому він прийшов до головного з 8-5 сам, а не з опергрупою так би мовити.
besconst написано:
The Sopranos just a TV show - Я в цьому сумніваюсь. Так ніби у нас ніхто не чув про Сопрано. іще: He's ain't like me. - Він мене не любить)))

Я теж це помітив. Якщо про Сопрано можна списати на смак перекладача, ну вирішив він, що так буде зрозуміліше. А от перекласти "He ain't like me" як "він мене не любить" (мало бути "він не такий, як я"), це груба помилка перекладу, яка показує, що перекладач навіть школи не закінчив. І це ж не любительський переклад, це якась типу студія. Певно, студія називається "Дно".

ktw14 
Поважний учасник


З нами з: 24.03.11
Востаннє: 07.08.20
Повідомлень: 172

2020-02-20 10:25  
Крутой фільм, варто дивитися.
NavigatorAG 
Новенький


З нами з: 30.08.14
Востаннє: 28.07.20
Повідомлень: 8

2020-04-30 23:16  
А можна поділития мільмом?
SHEVA2018 
Частий відвідувач


З нами з: 24.09.18
Востаннє: 30.07.20
Повідомлень: 34

2020-06-05 08:09  
На мій подив непоганий фільм!! Мені сподобався!
13Mark 
Поважний учасник


З нами з: 25.04.08
Востаннє: 07.08.20
Повідомлень: 212

2020-06-17 20:59  
Такий стандартний бойовик з очікуваним сюжетом та передбачуваним "поворотом".
Ваш часовий пояс: GMT + 2 Години

Нова тема   Відповісти