Кролик Джоджо / Jojo Rabbit (2019) 720p 3xUkr/Eng | Sub 2xUkr/Eng

Нові коментарі

Нова тема   Відповісти
Автор Повідомлення
Anonymous 







2020-02-05 00:47  


Кролик Джоджо / Jojo Rabbit (2019) 720p 3xUkr/Eng | Sub 2xUkr/Eng



«An anti-hate satire»



Кролик Джоджо / Jojo Rabbit (2019) 720p 3xUkr/Eng | Sub 2xUkr/Eng



Жанр: сатирична комедія, драма
Країна: США, Нова Зеландія, Чехія





Кінокомпанія: TSG Entertainment, Piki Films, Defender Films, Czech Anglo Productions
Режисер: Тайка Вайтіті / Taika Waititi
Актори: Роман Ґріффін Девіс / Roman Griffin Davis, Томасін МакКензі / Thomasin McKenzie, Скарлет Йогансен / Scarlett Johansson, Тайка Вайтіті / Taika Waititi, Сем Роквел / Sam Rockwell, Ребел Вілсон / Rebel Wilson, Алфі Аллен / Alfie Allen, Стівен Мерчант / Stephen Merchant, Арчі Єйтс / Archie Yates та інші


Сюжет:
«Кролик Джоджо» - це сатиричний фільм про Другу світову війну, що розкаже про самотнього німецького хлопчика (Роман Ґріффін Девіс у ролі Джоджо), чий світогляд перевертається з ніг на голову, коли він дізнається, що його самотня мати (Скарлет Йогансен) переховує на горищі їхнього дому молоду єврейську дівчину (Томасін МакКензі). Джоджо буде змушений поставити під сумнів сліпу віру в нацизм і правоту свого дурнуватого уявного друга Адольфа Гітлера (Тайка Вайтіті).




Оскар і премія Британської кіноакадемії за найкращий адаптований сценарій


Детальніше про основні нагороди та номінації:
Міжнародний кінофестиваль у Торонто - 2019

Переможець (1):

Гран-прі (вибір глядачів) - Найкращий фільм

Оскар - 2020 (за 2019 рік)

Переможець (1):

Найкращий адаптований сценарій - Тайка Вайтіті / Taika Waititi

Номінації (5):

Найкращий фільм

Найкращий монтаж

Найкращий дизайн костюмів

Найкраща робота художника-постановника

Найкраща жіноча роль другого плану - Скарлет Йогансен / Scarlett Johansson

Золотий Глобус - 2020 (за 2019 рік)

Номінації (2):

Найкращий фільм (комедія або мюзикл)

Найкраща чоловіча роль (комедія або мюзикл) - Роман Ґріффін Девіс / Roman Griffin Davis

Британська академія телебачення та кіномистецтва - Премія BAFTA - 2020 (за 2019 рік)

Переможець (1):

Найкращий адаптований сценарій - Тайка Вайтіті / Taika Waititi

Номінації (5):

Найкращий монтаж

Найкраща музика до фільму

Найкращий дизайн костюмів

Найкраща робота художника-постановника

Найкраща жіноча роль другого плану - Скарлет Йогансен / Scarlett Johansson


Рейтинг MPAA: PG-13 - не рекомендується для перегляду дітям до 13 років
Вікова категорія: 12+


Тривалість: 01:48:23
Якість: 720p

Відео:
кодек:
розмір кадру: 1280x692
бітрейт: ~4913 кб/с

Аудіо # 1:
мова: українська
переклад: професійний дубльований
кодек: 2.0 (стерео)
бітрейт: 192 кб/с
Інформація про дубляж




Аудіо # 2:
мова: українська
переклад: багатоголосий закадровий
кодек: 2.0 (стерео)
бітрейт: 192 кб/с

Аудіо # 3:
мова: українська
переклад: одноголосий закадровий [Burton Jey]
кодек: 5.1
бітрейт: 448 кб/с

Аудіо # 4:
мова: англійська
переклад: оригінал
кодек: 5.1
бітрейт: 1509 кб/с

Аудіо # 5:
мова: англійська
переклад: коментарі режисера Тайки Вайтіті
кодек: 2.0
бітрейт: 224 кб/с

Субтитри # 1 (Full):
мова: українська
тип: програмні (м'які)
формат: *.srt
переклад: офіційний, Анастасія Жищинська
Українські офіційні субтитри також можна завантажити окремо: Subscene

Субтитри # 2 (Full):
мова: українська
тип: програмні (м'які)
формат: *.srt
редагування: SurFutur
Українські субтитри також можна завантажити окремо з OpenSubtitles або Subscene

Субтитри # 3-4 (Full, SDH):
мова: англійська
тип: програмні (м'які)
формат: *.srt


Info
Код:
General
Complete name                            : Jojo Rabbit (2019) 720p [Ukr, Eng] [ViDeO_Hurtom].
Format                                   :
Format version                           : Version 4
File size                                : 5.66 GiB
Duration                                 : 1 h 48 min
Overall bit rate                         : 7 479 kb/s
Movie name                               : Кролик Джоджо / Jojo Rabbit (2019)
Encoded date                             : UTC 2020-05-22 08:52:07
Writing application                      : v30.1.0 ('Forever And More') 64-bit
Writing library                          : libebml v1.3.6 + v1.4.9
Cover                                    : Yes
Attachments                              : cover.jpeg

Video
ID                                       : 1
Format                                   : AVC
Format/Info                              : Advanced Video Codec
Format profile                           : [email protected]
Format settings                          : CABAC / 9 Ref Frames
Format settings, CABAC                   : Yes
Format settings, RefFrames               : 9 frames
Codec ID                                 : V_MPEG4/ISO/AVC
Duration                                 : 1 h 48 min
Bit rate                                 : 4 913 kb/s
Width                                    : 1 280 pixels
Height                                   : 692 pixels
Display aspect ratio                     : 1.85:1
Frame rate mode                          : Constant
Frame rate                               : 23.976 (24000/1001) FPS
Color space                              : YUV
Chroma subsampling                       : 4:2:0
Bit depth                                : 8 bits
Scan type                                : Progressive
Bits/(Pixel*Frame)                       : 0.231
Stream size                              : 3.72 GiB (66%)
Writing library                          : core 159 r2991 1771b55
Encoding settings                        : cabac=1 / ref=9 / deblock=1:-3:-3 / analyse=0x3:0x133 / me=umh / subme=11 / psy=1 / psy_rd=1.00:0.00 / mixed_ref=1 / me_range=32 / chroma_me=1 / trellis=2 / 8x8dct=1 / cqm=0 / deadzone=21,11 / fast_pskip=0 / chroma_qp_offset=-2 / threads=12 / lookahead_threads=3 / sliced_threads=0 / nr=0 / decimate=0 / interlaced=0 / bluray_compat=0 / constrained_intra=0 / bframes=12 / b_pyramid=2 / b_adapt=2 / b_bias=0 / direct=3 / weightb=1 / open_gop=0 / weightp=2 / keyint=240 / keyint_min=23 / scenecut=40 / intra_refresh=0 / rc_lookahead=60 / rc=2pass / mbtree=0 / bitrate=4913 / ratetol=1.0 / qcomp=0.65 / qpmin=0 / qpmax=69 / qpstep=4 / cplxblur=20.0 / qblur=0.5 / vbv_maxrate=50000 / vbv_bufsize=62500 / nal_hrd=none / filler=0 / ip_ratio=1.30 / pb_ratio=1.30 / aq=3:0.80
Language                                 : English
Default                                  : Yes
Forced                                   : No
Color range                              : Limited
Color primaries                          : BT.709
Transfer characteristics                 : BT.709
Matrix coefficients                      : BT.709

Audio #1
ID                                       : 2
Format                                   : AC-3
Format/Info                              : Audio Coding 3
Commercial name                          : Dolby Digital
Codec ID                                 : A_AC3
Duration                                 : 1 h 48 min
Bit rate mode                            : Constant
Bit rate                                 : 192 kb/s
Channel(s)                               : 2 channels
Channel layout                           : L R
Sampling rate                            : 48.0 kHz
Frame rate                               : 31.250 FPS (1536 SPF)
Bit depth                                : 16 bits
Compression mode                         : Lossy
Stream size                              : 149 MiB (3%)
Title                                    : Dub [Stereo], 2.0 192 Kbps
Language                                 : Ukrainian
Service kind                             : Complete Main
Default                                  : Yes
Forced                                   : No

Audio #2
ID                                       : 3
Format                                   : AC-3
Format/Info                              : Audio Coding 3
Commercial name                          : Dolby Digital
Codec ID                                 : A_AC3
Duration                                 : 1 h 48 min
Bit rate mode                            : Constant
Bit rate                                 : 192 kb/s
Channel(s)                               : 2 channels
Channel layout                           : L R
Sampling rate                            : 48.0 kHz
Frame rate                               : 31.250 FPS (1536 SPF)
Bit depth                                : 16 bits
Compression mode                         : Lossy
Stream size                              : 149 MiB (3%)
Title                                    : Ictv [Stereo], 2.0 192 Kbps
Language                                 : Ukrainian
Service kind                             : Complete Main
Default                                  : No
Forced                                   : No

Audio #3
ID                                       : 4
Format                                   : AC-3
Format/Info                              : Audio Coding 3
Commercial name                          : Dolby Digital
Codec ID                                 : A_AC3
Duration                                 : 1 h 48 min
Bit rate mode                            : Constant
Bit rate                                 : 448 kb/s
Channel(s)                               : 6 channels
Channel layout                           : L R C LFE Ls Rs
Sampling rate                            : 48.0 kHz
Frame rate                               : 31.250 FPS (1536 SPF)
Bit depth                                : 16 bits
Compression mode                         : Lossy
Stream size                              : 347 MiB (6%)
Title                                    : AVO [Burton Jey], 5.1 448 kbps
Language                                 : Ukrainian
Service kind                             : Complete Main
Default                                  : No
Forced                                   : No

Audio #4
ID                                       : 5
Format                                   :
Format/Info                              : Digital Theater Systems
Codec ID                                 : A_DTS
Duration                                 : 1 h 48 min
Bit rate mode                            : Constant
Bit rate                                 : 1 509 kb/s
Channel(s)                               : 6 channels
Channel layout                           : C L R Ls Rs LFE
Sampling rate                            : 48.0 kHz
Frame rate                               : 93.750 FPS (512 SPF)
Bit depth                                : 24 bits
Compression mode                         : Lossy
Stream size                              : 1.14 GiB (20%)
Title                                    : 5.1 | 1509
Language                                 : English
Default                                  : No
Forced                                   : No

Audio #5
ID                                       : 6
Format                                   : AC-3
Format/Info                              : Audio Coding 3
Commercial name                          : Dolby Digital
Codec ID                                 : A_AC3
Duration                                 : 1 h 48 min
Bit rate mode                            : Constant
Bit rate                                 : 224 kb/s
Channel(s)                               : 2 channels
Channel layout                           : L R
Sampling rate                            : 48.0 kHz
Frame rate                               : 31.250 FPS (1536 SPF)
Bit depth                                : 16 bits
Compression mode                         : Lossy
Stream size                              : 174 MiB (3%)
Title                                    : (Commentary by Director Taika Waititi)
Language                                 : English
Service kind                             : Complete Main
Default                                  : No
Forced                                   : No

Text #1
ID                                       : 7
Format                                   : UTF-8
Codec ID                                 : S_TEXT/UTF8
Codec ID/Info                            : UTF-8 Plain Text
Duration                                 : 1 h 48 min
Bit rate                                 : 83 b/s
Count of elements                        : 1460
Stream size                              : 65.8 KiB (0%)
Title                                    : Full (official)
Language                                 : Ukrainian
Default                                  : Yes
Forced                                   : No

Text #2
ID                                       : 8
Format                                   : UTF-8
Codec ID                                 : S_TEXT/UTF8
Codec ID/Info                            : UTF-8 Plain Text
Duration                                 : 1 h 42 min
Bit rate                                 : 96 b/s
Count of elements                        : 1364
Stream size                              : 72.7 KiB (0%)
Title                                    : Full (by SurFutur)
Language                                 : Ukrainian
Default                                  : No
Forced                                   : No

Text #3
ID                                       : 9
Format                                   : UTF-8
Codec ID                                 : S_TEXT/UTF8
Codec ID/Info                            : UTF-8 Plain Text
Duration                                 : 1 h 47 min
Bit rate                                 : 61 b/s
Count of elements                        : 1635
Stream size                              : 48.8 KiB (0%)
Title                                    : Full
Language                                 : English
Default                                  : No
Forced                                   : No

Text #4
ID                                       : 10
Format                                   : UTF-8
Codec ID                                 : S_TEXT/UTF8
Codec ID/Info                            : UTF-8 Plain Text
Duration                                 : 1 h 48 min
Bit rate                                 : 64 b/s
Count of elements                        : 1795
Stream size                              : 51.5 KiB (0%)
Title                                    : SDH
Language                                 : English
Default                                  : No
Forced                                   : No

Menu
00:00:00.000                             : en:Chapter 01
00:06:04.906                             : en:Chapter 02
00:09:25.523                             : en:Chapter 03
00:13:34.522                             : en:Chapter 04
00:16:17.059                             : en:Chapter 05
00:20:09.333                             : en:Chapter 06
00:27:09.461                             : en:Chapter 07
00:31:02.861                             : en:Chapter 08
00:36:30.146                             : en:Chapter 09
00:39:45.967                             : en:Chapter 10
00:44:13.192                             : en:Chapter 11
00:49:53.782                             : en:Chapter 12
00:53:17.194                             : en:Chapter 13
00:59:35.113                             : en:Chapter 14
01:03:34.019                             : en:Chapter 15
01:08:32.483                             : en:Chapter 16
01:14:20.498                             : en:Chapter 17
01:17:36.485                             : en:Chapter 18
01:22:13.387                             : en:Chapter 19
01:26:20.675                             : en:Chapter 20
01:29:24.901                             : en:Chapter 21
01:32:28.042                             : en:Chapter 22
01:37:15.371                             : en:Chapter 23
01:41:03.015                             : en:Chapter 24

Скріншоти










Джерело: &
Особиста оцінка: 0 - не дивився


Над доріжками працювали: PuMa.ua, Bohdan237, Sando7, Burton Jey


Кролик Джоджо / Jojo Rabbit (2019) 720p 3xUkr/Eng | Sub 2xUkr/Eng




Авторський реліз (завантажувати можна без реєстрації)
 Трекер:    Зареєстрований   

Завантажити / скачати фільм українською



відео для новачків



 Зареєстрований:   2020-05-22 21:09
 Розмір:   5.66 GB 
 Оцінка фільму:   9.2/10 (Голосів: 70)
 ЗАЛИШАЙТЕСЬ ЯКОМОГА ДОВШЕ НА РОЗДАЧІ! ЗАВАНТАЖИВ САМ - ДАЙ ЗАВАНТАЖИТИ ІНШИМ!
   
Anonymous 







2020-02-18 00:02  
Торент файл оновлено , Заміна відео на 
bot 
робот


З нами з: 30.09.07
Востаннє: 26.05.05
Повідомлень: 25645

2020-03-06 19:21  
Тему перенесено з Фільми до форуму Фільми в HD


antik_2008

khimera 
Свій


З нами з: 02.10.09
Востаннє: 31.07.20
Повідомлень: 50

2020-03-06 22:06  
як якість дубляжу?
mementomori111 
Частий відвідувач


З нами з: 15.03.15
Востаннє: 27.09.20
Повідомлень: 34

2020-03-08 11:14  
100500 фільм про evil'ь nazisss, як оригінально.
+380954897458 
VIP


З нами з: 02.06.17
Востаннє: 18.09.20
Повідомлень: 942

2020-03-08 11:50  
mementomori111
Та хоч і 100501, і нехай ще стільки ж знімуть. Про це потрібно постійно нагадувати, щоб усі знали і пам'ятали.

igor911 
Модератор відео


З нами з: 18.01.08
Востаннє: 29.09.20
Повідомлень: 15007

2020-03-08 12:14  
mementomori111 написано:
100500 фільм про evil'ь nazisss, як оригінально.

+380954897458 написано:
Про це потрібно постійно нагадувати, щоб усі знали і пам'ятали.

Але ніхто навіть не думає знімати фільми про куди страшніший російсько-гебешний імперіалізм. По-перше боязно, по-друге - "пабідітєлєй нє судят".

+380954897458 
VIP


З нами з: 02.06.17
Востаннє: 18.09.20
Повідомлень: 942

2020-03-08 22:02  
igor911
Інколи таки знімають. Про наш голодомор є на толоці два фільми, Ви знаєте які. Є ще "Номер 44" з Томом Харді. Сам Слай Сталлоне боровся в Афганістані зі звірствами радянських загарбників. "Нестерпна легкість буття" Філіпа Кауфмана про Празьку весну. Про антилюдську сутність КДБ Джон Х'юстон зняв "Кремлівського листа". Навіть у Росії 92-го вийшов "Чекіст" Олександра Рогожкіна про масовий розстріл людей у часи сталінських репресій (зараз би такого фільму точно не зняли, Цар би не дозволив). Якщо покопирсатися в пам'яті, то можна ще чимало чого знайти. Їх знімали порівняно небагато, бо Залізний Занавіс і тотальний контроль над інформацією робили свою справу.

don pedro 
Попереджень: 1
Попереджень: 1 


З нами з: 29.06.11
Востаннє: 29.09.20
Повідомлень: 17778

2020-03-09 21:45  
igor911 написано:
По-перше боязно, по-друге - "пабідітєлєй нє судят".

А по третє - на Заході ці питання усім по фігу.

nil 
Свій


З нами з: 03.11.08
Востаннє: 25.09.20
Повідомлень: 69

2020-03-13 19:46  
Добрий фільм. Дякую за роздачу.
igor911 написано:
ніхто навіть не думає знімати фільми про куди страшніший російсько-гебешний імперіалізм

Та ні, знімають іноді. Ось, наприклад. Але скільки було смороду й лайна від Москви та її симпатиків в бік цього фільму та його авторів, хоча автори фільму (німці) намагалися якомога "політкоректніше" показати російського солдата-гвалтівника! Якщо кому цікаво, деякі посилання є тут.

Nikko033 
VIP


З нами з: 31.12.12
Востаннє: 28.09.20
Повідомлень: 623

2020-03-15 18:09  
звук буде лише MIC?
waldi-hurtom 
VIP


З нами з: 07.10.12
Востаннє: 28.09.20
Повідомлень: 1183

2020-03-19 15:58  
Рідкісне лайно від тупих для тупих! До німецької комедії про Гітлера "Er ist wieder da" - як до Києва рачки. 1 з 10.
+380954897458 
VIP


З нами з: 02.06.17
Востаннє: 18.09.20
Повідомлень: 942

2020-03-19 23:40  
О, стара історія! Вельмишановний пан waldi-hurtom вважає всіх нас, кому фільм сподобався, тупими. Має право, адже він найрозумніша людина на толоці, та що там, в усій Україні! Happy
Nikko033 
VIP


З нами з: 31.12.12
Востаннє: 28.09.20
Повідомлень: 623

2020-03-20 01:16  
+380954897458 та що там в Україні... в усьому світі! Wide grin
drek0rig 
Новенький


З нами з: 28.12.19
Востаннє: 26.09.20
Повідомлень: 6

2020-03-22 00:43  
Nikko033
приєднуюсь до питання?

vit.fedorenko 
Новенький


З нами з: 13.12.16
Востаннє: 26.04.20
Повідомлень: 2

2020-03-30 20:49  
звук жахливий Sad (1) увесь час хтось шарудить якоюсь фігнею...
bieliakovs 
Новенький


З нами з: 16.11.19
Востаннє: 25.09.20
Повідомлень: 2

2020-04-28 12:58  
для чого взагалі викидувати на роздачу з таким звуком?????!!!!!!
Shukh 
VIP


З нами з: 20.08.11
Востаннє: 16.09.20
Повідомлень: 270

2020-05-04 21:43  
чесно кажучи, очікував від фільму набагато меншого!
10/10

Anonymous 







2020-05-04 22:05  
vit.fedorenko написано:
звук жахливий увесь час хтось шарудить якоюсь фігнею...

bieliakovs написано:
для чого взагалі викидувати на роздачу з таким звуком?????!!!!!!

добре
що такий є
до вибору там багато доріжок
наступного разу попередження
все написано в описі про звук і т.д.

drogoby4 
Новенький


З нами з: 18.10.12
Востаннє: 25.09.20
Повідомлень: 23

2020-05-06 23:48  
Але чи варто чекати на кращу якість звуку?Якщо так, то коли приблизно?
Anonymous 







2020-05-06 23:54  
drogoby4 написано:
Але чи варто чекати на кращу якість звуку?Якщо так, то коли приблизно?

годі питати про це
невідомо коли
напевно буде

Нідерландах вже є
https://play.google.com/store/movies/details/Jojo_Rabbit?id=h3Sb-yd4Tx4.P
наступного року на Євро поїхати і кіно + подивитися

Anonymous 







2020-05-22 13:27  
Торент файл оновлено. Заміна дубляжу на якісніший , та додано озвучку з ictv
Anonymous 







2020-05-22 21:09  
Замінено першу доріжку на якіснішу
superromkin 
Свій


З нами з: 28.01.17
Востаннє: 19.07.20
Повідомлень: 60

2020-05-26 16:00  
Дуже класна стрічка. Сатира тісно перетинається з трегдією і сам не помічаєш коли. Отримав величезне задоволення. Один з найкращих фільмів року. 10/10
88mmc88 
Свій


З нами з: 21.12.09
Востаннє: 28.09.20
Повідомлень: 95

2020-05-27 21:53  
Хтось буде роздавати????? Неділю вже як 95 процентів!!!
nil 
Свій


З нами з: 03.11.08
Востаннє: 25.09.20
Повідомлень: 69

2020-05-29 14:13  
88mmc88 написано:
Хтось буде роздавати????? Неділю вже як 95 процентів!!!

Anonymous написано:
Торент файл оновлено. Заміна дубляжу на якісніший , та додано озвучку з ictv

88mmc88:
Оновіть торент-файл цього фільму у своєму торент-клієнті. Стару версію видаліть.

Ваш часовий пояс: GMT + 2 Години

Нова тема   Відповісти