Паразити / Parasite / Gisaengchung (2019) Remux 1080p Ukr/Kor | Sub Eng

Нові коментарі

Нова тема   Відповісти
Автор Повідомлення
Anonymous 







2020-02-04 20:00  


Паразити / Parasite / Gisaengchung (2019) Remux 1080p Ukr/Kor | Sub Eng



«Знайди зловмисника»



Паразити / Parasite / Gisaengchung (2019) Remux 1080p Ukr/Kor | Sub Eng



Жанр: драма, трагікомедія, трилер
Країна: Південна Корея


Тop 250 #21 | - 96 | - 99% | |
------------------ (станом на 12.02.2020)



Золота пальмова гілка Каннського кінофестивалю, Золотий Глобус, 2 премії Британської кіноакадемії та 4 Оскари


Детальніше про основні нагороди та номінації:
Каннський кінофестиваль - 2019

Переможець (1):

Головна нагорода - Золота пальмова гілка

Оскар - 2020 (за 2019 рік)

Переможець (4):

Найкращий фільм

Найкращий міжнародний художній фільм

Найкраща режисура - Пон Джун Хо / Bong Joon Ho

Найкращий оригінальний сценарій - Пон Джун Хо / Bong Joon Ho та Хан Джин Вон / Han Jin-won

Номінації (2):

Найкращий монтаж

Найкраща робота художника-постановника

Золотий Глобус - 2020 (за 2019 рік)

Переможець (1):

Найкращий фільм іноземною мовою

Номінації (2):

Найкращий режисер - Пон Джун Хо / Bong Joon Ho

Найкращий сценарій - Пон Джун Хо / Bong Joon Ho

Британська академія телебачення та кіномистецтва - Премія BAFTA - 2020 (за 2019 рік)

Переможець (2):

Найкращий неангломовний фільм

Найкращий оригінальний сценарій - Пон Джун Хо / Bong Joon Ho та Хан Джин Вон / Han Jin-won

Номінації (2):

Найкращий фільм

Найкраща режисер - Пон Джун Хо / Bong Joon Ho


Кінокомпанія: CJ Entertainment
Режисер: Пон Джун Хо / Bong Joon Ho
Актори: Сон Кан Хо / Song Kang-ho, Лі Сон Гюн / Lee Sun-kyun, Чо Йо Чон / Cho Yeo-jeong, Чхве У Сік / Choi Woo-shik, Пак Со Дам / Park So-dam, Чан Хє Джин / Chang Hyae-jin, Лі Чон Ин / Lee Jung-eun, Пак Мьон Хун / Park Myung-hoon, Чон Чі Со / Jeong Ji-so та інші

Сюжет:
У сім'ї чотирьох безробітних похмурі життєві перспективи. Ситуація змінюється, коли старшому синові пропонують високооплачуваний підробіток репетитором. З допомогою сестри він робить фальшиві документи про освіту та приходить до розкішного маєтку заможного бізнесмена. Справивши гарне враження, старший син дізнається про ще одну відкриту вакансію, і у нього з'являється дуже незвичайний план з працевлаштування сестри.



Рейтинг MPAA: R - особам до 17 років обов'язкова присутність батьків або дорослого опікуна
Вікова категорія: 16+


Тривалість: 02:12:00
Якість: Blu-ray Remux 1080p

Відео:
кодек:
розмір кадру: 1920x1080
бітрейт: ~28901 кб/с

Аудіо # 1:
мова: українська
переклад: багатоголосий закадровий
кодек: 2.0 (стерео)
бітрейт: 192 кб/с

Аудіо # 2:
мова: корейська
переклад: оригінал
кодек: 5.1
бітрейт: 448 кб/с

Аудіо # 3:
мова: корейська
переклад: оригінал
кодек: TrueHD + Atmos 7.1
бітрейт: 4042 кб/с

Субтитри (Forced):
мова: українська
тип: програмні (м'які)
формат: *.srt

Субтитри (Full):
мова: англійська
тип: програмні (м'які)
формат: *.srt

Info
Код:
General
Complete name                            : Gisaengchung (2019) Blu-ray Remux 1080p [UKR_KOR] [ViDeO_Hurtom].
Format                                   :
Format version                           : Version 4
File size                                : 31.0 GiB
Duration                                 : 2 h 12 min
Overall bit rate mode                    : Variable
Overall bit rate                         : 33.7 Mb/s
Encoded date                             : UTC 2020-02-04 23:41:39
Writing application                      : v30.1.0 ('Forever And More') 64-bit
Writing library                          : libebml v1.3.6 + v1.4.9
Cover                                    : Yes
Attachments                              : cover.jpg

Video
ID                                       : 1
Format                                   : AVC
Format/Info                              : Advanced Video Codec
Format profile                           : [email protected]
Format settings                          : CABAC / 3 Ref Frames
Format settings, CABAC                   : Yes
Format settings, RefFrames               : 3 frames
Codec ID                                 : V_MPEG4/ISO/AVC
Duration                                 : 2 h 12 min
Bit rate mode                            : Variable
Bit rate                                 : 29.0 Mb/s
Maximum bit rate                         : 31.0 Mb/s
Width                                    : 1 920 pixels
Height                                   : 1 080 pixels
Display aspect ratio                     : 16:9
Frame rate mode                          : Constant
Frame rate                               : 23.976 (24000/1001) FPS
Color space                              : YUV
Chroma subsampling                       : 4:2:0
Bit depth                                : 8 bits
Scan type                                : Progressive
Bits/(Pixel*Frame)                       : 0.583
Stream size                              : 26.6 GiB (86%)
Writing library                          : core 146 r2538 121396c
Encoding settings                        : cabac=1 / ref=4 / deblock=1:-1:-1 / analyse=0x3:0x133 / me=umh / subme=10 / psy=1 / psy_rd=1.00:0.15 / mixed_ref=1 / me_range=24 / chroma_me=1 / trellis=2 / 8x8dct=1 / cqm=0 / deadzone=21,11 / fast_pskip=1 / chroma_qp_offset=-3 / threads=48 / lookahead_threads=4 / sliced_threads=0 / slices=4 / nr=0 / decimate=1 / interlaced=0 / bluray_compat=1 / constrained_intra=0 / bframes=3 / b_pyramid=1 / b_adapt=2 / b_bias=0 / direct=3 / weightb=1 / open_gop=1 / weightp=1 / keyint=24 / keyint_min=1 / scenecut=40 / intra_refresh=0 / rc_lookahead=24 / rc=2pass / mbtree=1 / bitrate=29000 / ratetol=1.0 / qcomp=0.60 / qpmin=0 / qpmax=69 / qpstep=4 / cplxblur=20.0 / qblur=0.5 / vbv_maxrate=31000 / vbv_bufsize=30000 / nal_hrd=vbr / filler=0 / ip_ratio=1.40 / aq=1:1.00
Default                                  : Yes
Forced                                   : No
Color range                              : Limited
Color primaries                          : BT.709
Transfer characteristics                 : BT.709
Matrix coefficients                      : BT.709

Audio #1
ID                                       : 2
Format                                   : AC-3
Format/Info                              : Audio Coding 3
Commercial name                          : Dolby Digital
Codec ID                                 : A_AC3
Duration                                 : 2 h 12 min
Bit rate mode                            : Constant
Bit rate                                 : 192 kb/s
Channel(s)                               : 2 channels
Channel layout                           : L R
Sampling rate                            : 48.0 kHz
Frame rate                               : 31.250 FPS (1536 SPF)
Bit depth                                : 16 bits
Compression mode                         : Lossy
Stream size                              : 181 MiB (1%)
Title                                    : 2.0 | 192
Language                                 : Ukrainian
Service kind                             : Complete Main
Default                                  : Yes
Forced                                   : No

Audio #2
ID                                       : 3
Format                                   : AC-3
Format/Info                              : Audio Coding 3
Commercial name                          : Dolby Digital
Codec ID                                 : A_AC3
Duration                                 : 2 h 12 min
Bit rate mode                            : Constant
Bit rate                                 : 448 kb/s
Channel(s)                               : 6 channels
Channel layout                           : L R C LFE Ls Rs
Sampling rate                            : 48.0 kHz
Frame rate                               : 31.250 FPS (1536 SPF)
Bit depth                                : 16 bits
Compression mode                         : Lossy
Stream size                              : 423 MiB (1%)
Title                                    : 5.1 | 448
Language                                 : Korean
Service kind                             : Complete Main
Default                                  : No
Forced                                   : No

Audio #3
ID                                       : 4
Format                                   : MLP FBA 16-ch
Format/Info                              : Meridian Lossless Packing FBA with 16-channel presentation
Commercial name                          : Dolby TrueHD with Dolby Atmos
Codec ID                                 : A_TRUEHD
Duration                                 : 2 h 12 min
Bit rate mode                            : Variable
Bit rate                                 : 4 042 kb/s
Maximum bit rate                         : 6 816 kb/s
Channel(s)                               : 8 channels
Channel layout                           : L R C LFE Ls Rs Lb Rb
Sampling rate                            : 48.0 kHz
Frame rate                               : 1 200.000 FPS (40 SPF)
Compression mode                         : Lossless
Stream size                              : 3.73 GiB (12%)
Title                                    : TrueHD + Atmos 7.1 | 4042
Language                                 : Korean
Default                                  : No
Forced                                   : No
Number of dynamic objects                : 11
Bed channel count                        : 1 channel
Bed channel configuration                : LFE

Text #1
ID                                       : 5
Format                                   : UTF-8
Codec ID                                 : S_TEXT/UTF8
Codec ID/Info                            : UTF-8 Plain Text
Duration                                 : 1 h 51 min
Bit rate                                 : 0 b/s
Count of elements                        : 6
Stream size                              : 450 Bytes (0%)
Title                                    : Forced
Language                                 : Ukrainian
Default                                  : Yes
Forced                                   : No

Text #2
ID                                       : 6
Format                                   : UTF-8
Codec ID                                 : S_TEXT/UTF8
Codec ID/Info                            : UTF-8 Plain Text
Duration                                 : 2 h 5 min
Bit rate                                 : 53 b/s
Count of elements                        : 1645
Stream size                              : 49.5 KiB (0%)
Title                                    : Full
Language                                 : English
Default                                  : No
Forced                                   : No

Скріншоти




Джерело:
Особиста оцінка: 0 - не дивився


Паразити / Parasite / Gisaengchung (2019) Remux 1080p Ukr/Kor | Sub Eng




Золотий реліз (завантажене не впливає на рейтинг)
 Трекер:    Зареєстрований   

Завантажити / скачати фільм українською



відео для новачків



 Зареєстрований:   2020-02-05 13:14
 Розмір:   31.03 GB 
 Оцінка фільму:   8.7/10 (Голосів: 27)
   
Інші релізи
don pedro 
Попереджень: 1
Попереджень: 1 


З нами з: 29.06.11
Востаннє: 25.02.20
Повідомлень: 15720

2020-02-04 21:36  
Один з кращих фільмів минулого року.
pablodevil 
Новенький


З нами з: 08.09.12
Востаннє: 24.02.20
Повідомлень: 1

2020-02-04 22:44  
Фільм дуже достойний перегляду. Всім раджу! Не здивувався якби він отримав Оскар(за кращий фільм),але він не американський такщо нажаль ні.
Шкоду що прям перед виходом української озвучки подивився з субтитрами, але напевне додам його в бібліотеку пізніше ще раз передивлюсь (і це плюс тому що деякі ВЕЛИКІ фільми ну дуже тяжко дивитись другий раз).

-Star-Lord- 
VIP


З нами з: 09.08.18
Востаннє: 25.02.20
Повідомлень: 1534

2020-02-04 23:08  
Урааааа
[Captain] 
VIP


З нами з: 18.02.12
Востаннє: 25.02.20
Повідомлень: 2059

2020-02-05 10:45  
Звук лайн?
alex2 
Поважний учасник


З нами з: 01.02.12
Востаннє: 25.02.20
Повідомлень: 174

2020-02-05 11:05  
Снігобур краще був) але цей теж цікавий і важливий. головне залишатися собою.
77997997 
VIP


З нами з: 26.02.13
Востаннє: 25.02.20
Повідомлень: 920

2020-02-05 11:54  
Цитата:
Звук лайн?

Ні, стерео з онлайн-кінотеатру. В додатку смарт ТВ в UHD там взагалі 5.1 наша доріжка є...

bot 
робот


З нами з: 30.09.07
Востаннє: 26.05.05
Повідомлень: 23391

2020-02-05 13:14  
Тему перенесено з Анонси релізів до форуму Фільми в HD


antik_2008

[Captain] 
VIP


З нами з: 18.02.12
Востаннє: 25.02.20
Повідомлень: 2059

2020-02-06 15:11  
Так це переклад такий самий як був у кінотеатрі? Чи там дубляж був?
zhman 
Поважний учасник


З нами з: 21.12.14
Востаннє: 24.02.20
Повідомлень: 232

2020-02-06 16:17  
Цікавий фільм вийшов. Перші 20 хв були передбачувані, а в кінці несподіваний трешачок. Не обійшлось і без театру абсурду.
SurFutur 
VIP


З нами з: 12.03.15
Востаннє: 15.02.20
Повідомлень: 308

2020-02-09 03:02  
[Captain] написано:
Так це переклад такий самий як був у кінотеатрі?


Саме так.

Vigor1964 
Частий відвідувач


З нами з: 14.05.10
Востаннє: 25.02.20
Повідомлень: 33

2020-02-10 16:04  
pablodevil
Переможці премії Оскар-2020

Кращий фільм - "Паразити";
Краща режисерська робота - Пон Джун Хо ( "Паразити");
Кращий оригінальний сценарій - Пон Джун Хо ( "Паразити");
Кращий міжнародний повнометражний фільм - "Паразити" (Південна Корея)

ryder2 
Частий відвідувач


З нами з: 01.11.17
Востаннє: 24.02.20
Повідомлень: 32

2020-02-11 12:38  
здається тут з оскаром щось напутали Rolleyes (2)
santaklava 
Свій


З нами з: 12.10.09
Востаннє: 23.02.20
Повідомлень: 54

2020-02-11 13:49  
дякую фільм супер
Neuro1911 
Новенький


З нами з: 20.11.19
Востаннє: 19.02.20
Повідомлень: 1

2020-02-12 20:48  
77997997 написано:
В додатку смарт ТВ в UHD там взагалі 5.1 наша доріжка є...


я вибачаюсь,про який додаток мова?

ktw14 
Свій


З нами з: 24.03.11
Востаннє: 24.02.20
Повідомлень: 145

2020-02-13 11:37  
Подивився майже годину, щось не дуже заходить цей фільм. Все дуже передбачувано і наївно. Постараюся додивитися. Але таке.
tktl 
Частий відвідувач


З нами з: 25.08.13
Востаннє: 25.02.20
Повідомлень: 29

2020-02-14 17:10  
Не зміг додивитись. І навряд повернусь до цього фільму. Вистачило десь на годину. Як вже тут зауважили - занадто передбачувано. Гумор (він ніби ж є) не смішний, герої поводяться як діти, або, що більш вірогідне, як ідіоти, і через це все виглядає як дешевий фарс. Ніби суцільні декорації із дерева.
Як на мене, навіть в Губці Бобі подача набагато глибша Happy
Якщо це отримало Оскар, то "Одного разу в Голлівуді" мало б отримати 10 оскарів, а "Мої думки тихі" перемогти в Каннах...

myru22 
Свій


З нами з: 27.11.16
Востаннє: 24.02.20
Повідомлень: 76

2020-02-14 20:09  
фільм року
Gxost 
Новенький


З нами з: 20.10.10
Востаннє: 24.02.20
Повідомлень: 10

2020-02-15 17:47  
Цей фільм розповідає просто неймовірну історію, тому що сім'я Парків - найнаївніші люди на світі. Довіряють усім, не задумуються про дивність своєї ситуації і не підозрюють, що щось тут не так. Дивно, що вони ще не втратили усе майно з такою наївністю. Так само сім'я Кімів проявляє розум і хитрість, щоб досягти кращого становища, але при цьому їм не вистачає розуму, щоб не наламати дрів пізніше, що аж дивує, чи їх не підмінили.

Історії не дуже віриш, але нічого, для непоганого кіно згодиться. Проте це фільм, який усі радять і який навіть отримав Оскара як кращий фільм року. Отже, це має бути дуже хороший фільм. Чи так це? Як комедія він несмішний. Як сатира про соціальну нерівність теж не вийшов.
Кіми нічим не відрізняються від людей, які ідуть по головам. Вони приберуть кожного, хто стане в них на шляху. Але за задумом це не вони погані, а соціальна нерівність їх змушує. І тому це геніальний фільм. Але ж ні, люди прибирають тих, хто в них на заваді, незалежно від достатку та соціального статусу. Справа зовсім не в грошах. Справа в людях. Як фільм про поганих людей він непоганий, але як фільм про багатих та бідних він взагалі ніякий.

zdlr 
Свій


З нами з: 07.12.12
Востаннє: 25.02.20
Повідомлень: 64

2020-02-16 00:09  
Було соромно дивитися. Фільм шикарний.
snight 
Новенький


З нами з: 16.07.08
Востаннє: 24.02.20
Повідомлень: 3

2020-02-24 22:20  
Особисто мені фільм на 3 -

Є щось цікаве спочатку, треш в кінці просто треш ....
Сюжет так собі.

Ці фільми які виграють оскари останній час , таке враження, що пишуть ті кому в житті мало екшена...

Бо якесь просте місиво по факту виходить.

Ваш часовий пояс: GMT + 2 Години

Нова тема   Відповісти