Хазяйка дому / HouseSitter (1992) 720p Ukr/Eng | Sub Eng

Нові коментарі

Нова тема   Відповісти
Автор Повідомлення
Anonymous 







2020-02-04 19:46  
Хазяйка дому / HouseSitter (1992) 720p Ukr/Eng | Sub Eng

Хазяйка дому / HouseSitter (1992) 720p Ukr/Eng | Sub Eng


Жанр: комедія, романтичний
Країна: США



Кінокомпанія: Imagine Films Entertainment, Universal Pictures
Режисер: Френк Оз
Актори: Стів Мартін, Ґолді Гоун, Дана Делані, Джулі Харріс, Дональд Мофет

Сюжет:
Романтична історія про відносини двох, що розпочалися з вигадок та фантазій, а для побудови стосунків - це нетривкий фундамент. І в цьому випадку варіантів два: або повний крах ілюзій, або покрокове здійснення фантазій.


Тривалість: 01:41:20
Якість: 720p
Відео:
кодек:
розмір кадру: 1280х694
бітрейт: 6 605 кб/с

Аудіо # 1:
мова: українська
переклад: двоголосий закадровий
кодек: 2.0
бітрейт: 192 кб/с

Аудіо # 2:
мова: англійська
переклад: оригінал
кодек: 2.0
бітрейт: 192 кб/с

Субтитри:
мова: англійська
тип: програмні (м'які)
формат: *.srt
Info
General
Unique ID : 190810753229772388190201853673559353116 (0x8F8CD0784CC3BA568A3EB6B3AFD4E71C)
Complete name : H:\Toloka\2020\HouseSitter (1992) 720p.
Format :
Format version : Version 4
File size : 4.95 GiB
Duration : 1 h 41 min
Overall bit rate : 6 991 kb/s
Encoded date : UTC 2020-02-04 16:42:33
Writing application : v6.1.0 ('Old Devil') built on Mar 4 2013 09:10:42
Writing library : libebml v1.3.0 + v1.4.0

Video
ID : 1
Format : AVC
Format/Info : Advanced Video Codec
Format profile : [email protected]
Format settings : CABAC / 9 Ref Frames
Format settings, CABAC : Yes
Format settings, RefFrames : 9 frames
Codec ID : V_MPEG4/ISO/AVC
Duration : 1 h 41 min
Bit rate : 6 468 kb/s
Width : 1 280 pixels
Height : 694 pixels
Display aspect ratio : 1.85:1
Frame rate mode : Constant
Frame rate : 23.976 (24000/1001) FPS
Color space : YUV
Chroma subsampling : 4:2:0
Bit depth : 8 bits
Scan type : Progressive
Bits/(Pixel*Frame) : 0.304
Stream size : 4.58 GiB (93%)
Writing library : core 146 r2538 121396c
Encoding settings : cabac=1 / ref=9 / deblock=1:-1:-1 / analyse=0x3:0x113 / me=umh / subme=11 / psy=1 / psy_rd=1.00:0.15 / mixed_ref=1 / me_range=32 / chroma_me=1 / trellis=2 / 8x8dct=1 / cqm=0 / deadzone=21,11 / fast_pskip=0 / chroma_qp_offset=-3 / threads=6 / lookahead_threads=1 / sliced_threads=0 / nr=0 / decimate=1 / interlaced=0 / bluray_compat=0 / constrained_intra=0 / bframes=8 / b_pyramid=2 / b_adapt=2 / b_bias=0 / direct=1 / weightb=1 / open_gop=0 / weightp=2 / keyint=230 / keyint_min=23 / scenecut=40 / intra_refresh=0 / rc_lookahead=40 / rc=crf / mbtree=0 / crf=18.7 / qcomp=0.60 / qpmin=0 / qpmax=69 / qpstep=4 / vbv_maxrate=62500 / vbv_bufsize=78125 / crf_max=0.0 / nal_hrd=none / filler=0 / ip_ratio=1.40 / pb_ratio=1.30 / aq=1:1.00
Language : English
Default : Yes
Forced : No

Audio #1
ID : 2
Format : AC-3
Format/Info : Audio Coding 3
Commercial name : Dolby Digital
Codec ID : A_AC3
Duration : 1 h 41 min
Bit rate mode : Constant
Bit rate : 192 kb/s
Channel(s) : 2 channels
Channel layout : L R
Sampling rate : 48.0 kHz
Frame rate : 31.250 FPS (1536 SPF)
Bit depth : 16 bits
Compression mode : Lossy
Stream size : 139 MiB (3%)
Title : UKR (Новий)
Language : Ukrainian
Service kind : Complete Main
Default : Yes
Forced : Yes

Audio #2
ID : 3
Format : AC-3
Format/Info : Audio Coding 3
Commercial name : Dolby Digital
Codec ID : A_AC3
Duration : 1 h 41 min
Bit rate mode : Constant
Bit rate : 192 kb/s
Channel(s) : 2 channels
Channel layout : L R
Sampling rate : 48.0 kHz
Frame rate : 31.250 FPS (1536 SPF)
Bit depth : 16 bits
Compression mode : Lossy
Stream size : 139 MiB (3%)
Title : ENG
Language : English
Service kind : Complete Main
Default : No
Forced : No

Text
ID : 4
Format : UTF-8
Codec ID : S_TEXT/UTF8
Codec ID/Info : UTF-8 Plain Text
Title : ENG
Language : English
Default : No
Forced : No

Menu
00:00:00.000 : en:Chapter 01
00:00:22.856 : en:Chapter 02
00:15:47.821 : en:Chapter 03
00:30:33.832 : en:Chapter 04
00:45:27.933 : en:Chapter 05
01:04:21.899 : en:Chapter 06
01:37:58.497 : en:Chapter 07
Скріншоти






За доріжку подяка п.: dvorsky, NemoInFire
Особиста подяка пану denixx за надану матеріальну допомогу на підтримку цього і майбутніх релізів.
Джерело:


Срібний реліз (на рейтинг впливає 50% завантаженого)
 Трекер:    Зареєстрований   

Завантажити / скачати фільм українською



відео для новачків



 Зареєстрований:   2020-02-04 19:46
 Розмір:   4.95 GB 
 Оцінка фільму:   8.4/10 (Голосів: 7)
   
Інші релізи
   Хазяйка дому / HouseSitter (1992) NemoInFire  4 / 0   1.7 GB   2015-07-23 21:51 
arwis 
Частий відвідувач


З нами з: 02.12.09
Востаннє: 26.09.20
Повідомлень: 29

2020-07-21 10:40  
Три сіда на роздачі і неможливо впродовж 3-х тижнів завантажити фільм... Можливо хтось поділиться хоча б українською озвучкою до цієї справді цікавої романтичної комедії?
Anonymous 







2020-07-21 11:11  
arwis написано:
Хазяйка дому / HouseSitter (1992) 720p Ukr/Eng | Sub Eng

Доріжка - https://fex.net/uk/s/ddkbx7k

arwis 
Частий відвідувач


З нами з: 02.12.09
Востаннє: 26.09.20
Повідомлень: 29

2020-07-21 11:37  
Anonymous написано:
Доріжка - https://fex.net/uk/s/ddkbx7k

Дякую за доріжку, завантажив!

Ваш часовий пояс: GMT + 2 Години

Нова тема   Відповісти