Аквамен / Aquaman (2006) Screener Ukr/Eng

Нові коментарі

Нова тема   Відповісти
Автор Повідомлення
Arch Enemy 
VIP


З нами з: 30.08.12
Востаннє: 30.11.20
Повідомлень: 1925

2020-02-04 12:40  
Аквамен / Aquaman (2006) Screener Ukr/Eng


Жанр: фантастика, бойовик, пригодницький
Країна: США



Кінокомпанія: The CW Network (The CW), Warner Bros. Television
Режисер: Ґреґ Біман
Актори: Джастін Хартлі, Лу Даймонд Філліпс, Деніз Кіньонес, Рік Пітерс, Ембер МакДональд, Вінг Реймс та інші.

Сюжет:
Фільм оповідає про пригоди хлопця - спадкоємця престолу самої Атлантиди, яка знаходиться на дні океану в районі Бермудського трикутника. Він має здібності, недоступні звичайним людям, може затримувати дихання під водою на скільки завгодно довго, і плавати з неймовірною швидкістю.

Його матір убили злісні тварюки - сирени, з якими в атлантів здавна точиться війна, а батько довго приховував від нього правду про те, що вони нащадки жителів Атлантиди, і що у них є місія - за всяку ціну завершити війну з монстрами.


Тривалість: 00:41:24
Якість: Screener

Відео:
кодек:
розмір кадру: 624х352
бітрейт: ~1000 кбіт/сек.
контейнер: avi

Аудіо #1:
мова: українська
озвучення: багатоголосе закадрове
кодек: 2.0
бітрейт: 640 кбіт/сек.

Аудіо #2:
мова: англійська
озвучення: оригінал
кодек: MP3 2.0
бітрейт: 128 кбіт/сек.

Джерело перекладу, озвучення та релізу: AniUA

Info
General
Complete name : D:\Films\Aquaman.2006.Pilot.avi
Format : AVI
Format/Info : Audio Video Interleave
File size : 541 MiB
Duration : 41 min 24 s
Overall bit rate : 1 828 kb/s
Writing application : VirtualDubMod 1.5.10.2 (build 2540/release)
Writing library : VirtualDubMod build 2540/release

Video
ID : 0
Format : MPEG-4 Visual
Format profile : Advanced [email protected]
Format settings : BVOP2
Format settings, BVOP : 2
Format settings, QPel : No
Format settings, GMC : No warppoints
Format settings, Matrix : Default (H.263)
Muxing mode : Packed bitstream
Codec ID :
Codec ID/Hint :
Duration : 41 min 24 s
Bit rate : 1 046 kb/s
Width : 624 pixels
Height : 352 pixels
Display aspect ratio : 16:9
Frame rate : 23.976 (24000/1001) FPS
Color space : YUV
Chroma subsampling : 4:2:0
Bit depth : 8 bits
Scan type : Progressive
Compression mode : Lossy
Bits/(Pixel*Frame) : 0.199
Stream size : 310 MiB (57%)
Writing library : 1.1.0 (UTC 2005-11-22)

Audio #1
ID : 1
Format : AC-3
Format/Info : Audio Coding 3
Commercial name : Dolby Digital
Codec ID : 2000
Duration : 41 min 24 s
Bit rate mode : Constant
Bit rate : 640 kb/s
Channel(s) : 2 channels
Channel layout : L R
Sampling rate : 48.0 kHz
Frame rate : 31.250 FPS (1536 SPF)
Bit depth : 16 bits
Compression mode : Lossy
Stream size : 190 MiB (35%)
Alignment : Split across interleaves
Interleave, duration : 42 ms (1.00 video frame)
Interleave, preload duratio : 500 ms
Service kind : Complete Main

Audio #2
ID : 2
Format : MPEG Audio
Format version : Version 1
Format profile : Layer 3
Format settings : Joint stereo / MS Stereo
Codec ID : 55
Codec ID/Hint : MP3
Duration : 41 min 24 s
Bit rate mode : Constant
Bit rate : 128 kb/s
Channel(s) : 2 channels
Sampling rate : 44.1 kHz
Compression mode : Lossy
Stream size : 37.9 MiB (7%)
Alignment : Split across interleaves
Interleave, duration : 42 ms (1.00 video frame)
Interleave, preload duratio : 500 ms
Озвучено за фінансової підтримки NemoInFire



Авторський реліз (завантажувати можна без реєстрації)
 Трекер:    Зареєстрований   

Завантажити / скачати фільм українською



відео для новачків



 Зареєстрований:   2020-02-04 14:00
 Розмір:   541 MB 
 Оцінка фільму:   8.8/10 (Голосів: 8)
   
bot 
робот


З нами з: 30.09.07
Востаннє: 26.05.05
Повідомлень: 26416

2020-02-04 12:44  
Тему перенесено з Телесеріали до форуму Короткометражні


Arch Enemy

igor911 
Модератор відео


З нами з: 18.01.08
Востаннє: 01.12.20
Повідомлень: 15083

2020-02-04 13:44  
Arch Enemy написано:
1 серія ~42 хв., всього серій: 1

вкажіть точну тривалість з секундами, як прийнято у фільмах
Arch Enemy написано:
контейнер:

Навіщо пакувати в , тут же навіть сабів немає? Перепакуйте, будь ласка в avi.

Arch Enemy 
VIP


З нами з: 30.08.12
Востаннє: 30.11.20
Повідомлень: 1925

2020-02-04 14:08  
igor911 написано:
вкажіть точну тривалість з секундами, як прийнято у фільмах

Виправлено.

igor911 написано:
Навіщо пакувати в , тут же навіть сабів немає? Перепакуйте, будь ласка в avi.

Замінено звук на ас3 для збірки в avi.
Замінено МІ.

NightKid69 
Новенький


З нами з: 10.02.16
Востаннє: 30.11.20
Повідомлень: 2

2020-02-04 22:10  
Ого)) Навіть не мріяв подивитись такий раритет з українським озвученням =) Для мене як для фаната коміксів DC це справжній подарунок. Велике спасибі авторам озвучки і релізеру!
midnight_man 
Свій


З нами з: 13.10.09
Востаннє: 01.12.20
Повідомлень: 129

2020-02-06 21:56  
Хм... переклад, щоб не говорити непристойними словами, трошки не дуже...
midnight_man 
Свій


З нами з: 13.10.09
Востаннє: 01.12.20
Повідомлень: 129

2020-02-11 13:06  
А кіно взагалі так собі, особиста оцінка - 4/10
Ваш часовий пояс: GMT + 2 Години

Нова тема   Відповісти