Ласт Екзаїл / Останній вигнанець / Last Exile (2003) (01-16 з 26) 720р Ukr/Jap | Sub Ukr

Нові коментарі

Нова тема   Відповісти
Останній раз роздавалося Gwean (2020-05-29)
Автор Повідомлення
Gwean 
Відео Гуртом - фільмокрай
Відео Гуртом - фільмокрай


З нами з: 28.07.12
Востаннє: 29.05.20
Повідомлень: 666

2020-02-04 01:37  
Ласт Екзаїл / Останній вигнанець / Last Exile (2003) (01-16 з 26) 720р Ukr/Jap | Sub Ukr



Жанр: пригоди, фантастика, драма
Країна: Японія



Кінокомпанія: Gonzo
Режисер: Чіґіра Коїчі
Ролі озвучують: Маюмі Асано, Чіва Сайто, Юкана Ноґамі, Якана Ямадзакі та ін.

Сюжет:
Чи мріяв ти колись злетіти в небо на ваншипі? Небесний простір безмежний і підкорюється тільки вільним людям. Але що робити, коли небеса стали полем бою? Багато років триває непримиренна ворожнеча між Анаторією і Дізитом, а правила бою встановлює таємнича Гільдія. Мало хто наважиться піти проти її законів і технологій.

Ця історія про відчайдушних пілотів Клауса і Лаві, які жили мирним життям і навряд очікували, що опиняться поміж ворогуючими флотами; про дивовижну дівчинку Альвіс Гамільтон, просте перевезення якої може коштувати сміливцям життя; про Алекса Роу, капітана "Сільвани", яку пошепки називають "кораблем-убивцею", і ще багатьох інших непересічних особистостей.

У неба ж є свої таємниці. Кожен пілот мріє піднятися вище небесного склепіння, туди, де несамовитими вітровими потоками вирує Грандстрим. І тільки найсміливішим судилося здолати цю прадавню стихію.

Чи мріяв ти колись злетіти в небо на ваншипі?..

© Наталія Дев'ятко


Тривалість: 1 серія: ~24 хв. (цілком серій: 26)
Перелік серій
1. Перший хід
2. Політ ваншипа
3. Вантаж
4. Цугцванг
5. Позиційна гра
6. Атака арбітра
7. Цікавий Клаус
8. Зворотний хід
9. Розрахунок Алекса
10. Пастка
11. Розвиток
12. Відкрита атака
13. Ізольований пішак
14. Етюд Лаві
15. Шалена партія
16. Прорив
Якість:
Відео:
кодек:
розмір кадру: 1280 х 720
бітрейт: ~ 3000 кб/с

Аудіо # 1:
мова: українська
переклад: двоголосий закадровий
кодек: 2.0
бітрейт: ~700 кб/с

Аудіо # 2:
мова: японська
переклад: оригінал
кодек: 2.0
бітрейт: ~700 кб/с

Субтитри:
мова: українська
тип: програмні (м'які)
формат: *.
Info
General
Unique ID : 170218612066974424052145434016158814705 (0x800EE98668EE17A2BEAA46A1AEB791F1)
Complete name : R:\Last Exille () [720p]\Last Exile - 01 [ 720p ] Ukr DVO SUB.
Format :
Format version : Version 4
File size : 795 MiB
Duration : 24 min 27 s
Overall bit rate mode : Variable
Overall bit rate : 4 547 kb/s
Encoded date : UTC 2020-02-01 20:45:19
Writing application : v7.0.0 ('Where We Going') 32bit built on Jun 9 2014 15:08:34
Writing library : libebml v1.3.0 + v1.4.1

Video
ID : 1
Format : AVC
Format/Info : Advanced Video Codec
Format profile : High [email protected]
Format settings : CABAC / 9 Ref Frames
Format settings, CABAC : Yes
Format settings, Reference : 9 frames
Codec ID : V_MPEG4/ISO/AVC
Duration : 24 min 22 s
Bit rate : 2 966 kb/s
Width : 1 280 pixels
Height : 720 pixels
Display aspect ratio : 16:9
Frame rate mode : Constant
Frame rate : 23.976 (24000/1001) FPS
Color space : YUV
Chroma subsampling : 4:2:0
Bit depth : 10 bits
Scan type : Progressive
Bits/(Pixel*Frame) : 0.134
Stream size : 517 MiB (65%)
Title : 01
Writing library : core 119 r2106+636 fcb18f7
Encoding settings : cabac=1 / ref=9 / deblock=1:0:0 / analyse=0x3:0x113 / me=umh / subme=11 / psy=1 / fade_compensate=0.00 / psy_rd=1.00:0.00 / mixed_ref=1 / me_range=32 / chroma_me=1 / trellis=2 / 8x8dct=1 / cqm=0 / deadzone=15,11 / fast_pskip=0 / chroma_qp_offset=-2 / threads=12 / sliced_threads=0 / nr=0 / decimate=1 / interlaced=0 / bluray_compat=0 / constrained_intra=0 / fgo=0 / bframes=16 / b_pyramid=2 / b_adapt=2 / b_bias=0 / direct=3 / weightb=1 / open_gop=0 / weightp=2 / keyint=240 / keyint_min=24 / scenecut=40 / intra_refresh=0 / rc_lookahead=60 / rc=crf / mbtree=0 / crf=17.0 / qcomp=0.60 / qpmin=0 / qpmax=81 / qpstep=4 / vbv_maxrate=50000 / vbv_bufsize=62500 / crf_max=0.0 / nal_hrd=none / ip_ratio=1.40 / pb_ratio=1.30 / aq=3:1.00
Language : Japanese
Default : Yes
Forced : Yes
Color range : Limited
Color primaries : BT.709
Transfer characteristics : BT.709
Matrix coefficients : BT.709

Audio #1
ID : 2
Format :
Format/Info : Free Lossless Audio Codec
Codec ID : A_FLAC
Duration : 24 min 23 s
Bit rate mode : Variable
Bit rate : 813 kb/s
Channel(s) : 2 channels
Channel layout : L R
Sampling rate : 48.0 kHz
Frame rate : 11.719 FPS (4096 SPF)
Bit depth : 16 bits
Compression mode : Lossless
Stream size : 142 MiB (18%)
Title : DVO Gwean & Maslinka
Writing library : libFLAC 20170101 (UTC 2017-01-01)
Language : Ukrainian
Default : Yes
Forced : Yes

Audio #2
ID : 3
Format :
Format/Info : Free Lossless Audio Codec
Codec ID : A_FLAC
Duration : 24 min 27 s
Bit rate mode : Variable
Bit rate : 777 kb/s
Channel(s) : 2 channels
Channel layout : L R
Sampling rate : 48.0 kHz
Frame rate : 11.719 FPS (4096 SPF)
Bit depth : 16 bits
Compression mode : Lossless
Stream size : 136 MiB (17%)
Title : оригінальна доріжка
Writing library : libFLAC 1.2.1 (UTC 2007-09-17)
Language : Japanese
Default : No
Forced : No

Text #1
ID : 4
Format :
Codec ID : S_TEXT/
Codec ID/Info : Advanced Sub Station Alpha
Duration : 24 min 15 s
Bit rate : 15 b/s
Count of elements : 29
Compression mode : Lossless
Stream size : 2.67 KiB (0%)
Title : написи (Наталія Дев'ятко)
Language : Ukrainian
Default : Yes
Forced : Yes

Text #2
ID : 5
Format :
Codec ID : S_TEXT/
Codec ID/Info : Advanced Sub Station Alpha
Duration : 24 min 17 s
Bit rate : 117 b/s
Count of elements : 259
Compression mode : Lossless
Stream size : 21.0 KiB (0%)
Title : повні (Наталія Дев'ятко)
Language : Ukrainian
Default : No
Forced : No

Menu
00:00:00.000 : :Opening
00:01:33.051 : :Part A
00:12:12.065 : :Eyecatch
00:12:20.073 : :Part B
00:22:21.048 : :Ending
00:23:51.680 : :Preview
Скріншоти




Переклад: Наталія Дев'ятко
Озвучення: Gwean & Maslinka


Авторський реліз (завантажувати можна без реєстрації)
 Трекер:    Зареєстрований   

Завантажити / скачати аніме українською



відео для новачків



 Зареєстрований:   2020-05-28 19:44
 Розмір:   11.33 GB 
 Оцінка аніме:   9.4/10 (Голосів: 16)
   
sproza 
Свій


З нами з: 14.11.10
Востаннє: 26.05.20
Повідомлень: 90

2020-02-08 18:26  
Щиро дякую!
Натхненної вам праці!
Це один з моїх улюблених серіалів!

Ольга04 
Новенький


З нами з: 13.02.20
Востаннє: 13.02.20
Повідомлень: 1

2020-02-13 17:45  
Дякую, що з'явилося українською! Звучання зовсім нове!
Gwean 
Відео Гуртом - фільмокрай
Відео Гуртом - фільмокрай


З нами з: 28.07.12
Востаннє: 29.05.20
Повідомлень: 666

2020-02-18 22:45  
Додано 2 серію!

Замінено першу. Виправлений розмір субтитрів.

Gwean 
Відео Гуртом - фільмокрай
Відео Гуртом - фільмокрай


З нами з: 28.07.12
Востаннє: 29.05.20
Повідомлень: 666

2020-03-02 21:12  
Додано 3 серію!
motanka jj 
Новенький


З нами з: 19.11.19
Востаннє: 29.05.20
Повідомлень: 1

2020-03-09 01:40  
Чи планується озвучка наступних серій ?
Maslinka 
Свій


З нами з: 18.09.12
Востаннє: 27.05.20
Повідомлень: 55

2020-03-09 12:54  
motanka jj
Так, звісно. Переклад уже повністю є, ми озвучуватимемо потихеньку, оскільки зараз трохи завантажені проєктами.

Gwean 
Відео Гуртом - фільмокрай
Відео Гуртом - фільмокрай


З нами з: 28.07.12
Востаннє: 29.05.20
Повідомлень: 666

2020-03-14 19:37  
Додано 4 серію!
11FrYkT 
Модератор відео


З нами з: 20.02.11
Востаннє: 29.05.20
Повідомлень: 6881

2020-03-14 20:53  
Gwean написано:
Ласт Екзаїл / Останній вигнанець / Last Exile (2003) (01-04 з 26) Ukr/Jap | Sub Ukr

Вказати якість відео
Gwean написано:
кодек:

вказати кількість каналів

Gwean 
Відео Гуртом - фільмокрай
Відео Гуртом - фільмокрай


З нами з: 28.07.12
Востаннє: 29.05.20
Повідомлень: 666

2020-03-14 22:49  
11FrYkT

Виправив.

Gwean 
Відео Гуртом - фільмокрай
Відео Гуртом - фільмокрай


З нами з: 28.07.12
Востаннє: 29.05.20
Повідомлень: 666

2020-03-24 00:51  
Додано 5 серію!
Gwean 
Відео Гуртом - фільмокрай
Відео Гуртом - фільмокрай


З нами з: 28.07.12
Востаннє: 29.05.20
Повідомлень: 666

2020-04-06 11:55  
Додано 6 серію!
Gwean 
Відео Гуртом - фільмокрай
Відео Гуртом - фільмокрай


З нами з: 28.07.12
Востаннє: 29.05.20
Повідомлень: 666

2020-04-22 12:43  
Додано 7 серія!
fobospirit 
Новенький


З нами з: 21.06.14
Востаннє: 26.05.20
Повідомлень: 13

2020-04-25 17:12  
Дуже чекаю завершення озвучення, бо це моє улюблене аніме.
Gwean 
Відео Гуртом - фільмокрай
Відео Гуртом - фільмокрай


З нами з: 28.07.12
Востаннє: 29.05.20
Повідомлень: 666

2020-05-04 13:02  
Додано 8 серію!
Gwean 
Відео Гуртом - фільмокрай
Відео Гуртом - фільмокрай


З нами з: 28.07.12
Востаннє: 29.05.20
Повідомлень: 666

2020-05-08 12:51  
Додано 9 серію!
Gwean 
Відео Гуртом - фільмокрай
Відео Гуртом - фільмокрай


З нами з: 28.07.12
Востаннє: 29.05.20
Повідомлень: 666

2020-05-18 16:17  
Додано 10 та 11 серії!
Gwean 
Відео Гуртом - фільмокрай
Відео Гуртом - фільмокрай


З нами з: 28.07.12
Востаннє: 29.05.20
Повідомлень: 666

2020-05-20 14:42  
Додано 12 серію!
Gwean 
Відео Гуртом - фільмокрай
Відео Гуртом - фільмокрай


З нами з: 28.07.12
Востаннє: 29.05.20
Повідомлень: 666

2020-05-21 15:56  
Додано 13 серію!
Gwean 
Відео Гуртом - фільмокрай
Відео Гуртом - фільмокрай


З нами з: 28.07.12
Востаннє: 29.05.20
Повідомлень: 666

2020-05-23 16:26  
Додано 14 серію!
Gwean 
Відео Гуртом - фільмокрай
Відео Гуртом - фільмокрай


З нами з: 28.07.12
Востаннє: 29.05.20
Повідомлень: 666

2020-05-25 20:20  
Додано 15 серію!
Gwean 
Відео Гуртом - фільмокрай
Відео Гуртом - фільмокрай


З нами з: 28.07.12
Востаннє: 29.05.20
Повідомлень: 666

2020-05-28 19:57  
Додано 16 серію!
Ваш часовий пояс: GMT + 2 Години

Нова тема   Відповісти