Вiллi i таємнича планета / Terra Willy: Planete inconnue (2019) Remux 1080p Ukr/Eng | Sub Eng

Нові коментарі

Нова тема   Відповісти
Автор Повідомлення
sergiyko.5 
Попереджень: 1
Попереджень: 1 


З нами з: 25.02.16
Востаннє: 28.05.20
Повідомлень: 3132

2020-02-03 22:46  
Вiллi i таємнича планета / Terra Willy: Planete inconnue (2019) Remux 1080p Ukr/Eng | Sub Eng


Вiллi i таємнича планета / Terra Willy: Planete inconnue (2019) Remux 1080p Ukr/Eng | Sub Eng

Жанр: пригоди, фантастика
Країна: Франція
Кінокомпанія: TAT Productions, Bac Films, France 3 Cinema
Режисер: Ерік Тості

Сюжет:
Ставши жертвою метеоритного дощу, космічний мандрівник Віллі потрапляє на незнайому планету. Юний дослідник залишається сам на сам із дикими джунглями і їхніми мешканцями. Разом із роботом Баком йому необхідно вижити до прибуття його батьків із рятувальною місією.




Тривалість: 01:30:03
Якість: Remux

Відео: кодек: Н.264 розмір кадру: 1920 х 1080 бітрейт: 22100 кб/с
Аудіо 1: мова: українська переклад: професійний дубльований кодек: 5.1 бітрейт: 448 кб/с
Аудіо 2: мова: англійська переклад: оригінал кодек: -HD MA 5.1 бітрейт: 2126 кб/с
Субтитри: мова: англійська тип: програмні (м'які) формат: *.srt
Про файл:
General
Unique ID : 284088426888354970375727648800462256970 (0xD5B970D9913F7B74A4950E7E3086BB4A)
Complete name : D:\Documents\Torrents\Rizne\Terra Willy.Planete Inconnue.2019.1080p.Remux.Ukr.Eng.
Format :
Format version : Version 4
File size : 15.5 GiB
Duration : 1 h 30 min
Overall bit rate mode : Variable
Overall bit rate : 24.7 Mb/s
Movie name : Terra Willy: Planète inconnue by sergiyko
Encoded date : UTC 2020-04-06 10:06:51
Writing application : v44.0.0 ('Domino') 64-bit
Writing library : libebml v1.3.10 + v1.5.2

Video
ID : 1
Format : AVC
Format/Info : Advanced Video Codec
Format profile : [email protected]
Format settings : CABAC / 2 Ref Frames
Format settings, CABAC : Yes
Format settings, Reference : 2 frames
Format settings, GOP : M=1, N=5
Codec ID : V_MPEG4/ISO/AVC
Duration : 1 h 30 min
Bit rate mode : Variable
Bit rate : 22.1 Mb/s
Maximum bit rate : 32.2 Mb/s
Width : 1 920 pixels
Height : 1 080 pixels
Display aspect ratio : 16:9
Frame rate mode : Constant
Frame rate : 24.000 FPS
Color space : YUV
Chroma subsampling : 4:2:0
Bit depth : 8 bits
Scan type : Progressive
Bits/(Pixel*Frame) : 0.445
Stream size : 13.9 GiB (90%)
Title : Terra Willy.Planete Inconnue 2019
Language : French
Default : Yes
Forced : No

Audio #1
ID : 2
Format : AC-3
Format/Info : Audio Coding 3
Commercial name : Dolby Digital
Codec ID : A_AC3
Duration : 1 h 30 min
Bit rate mode : Constant
Bit rate : 448 kb/s
Channel(s) : 6 channels
Channel layout : L R C LFE Ls Rs
Sampling rate : 48.0 kHz
Frame rate : 31.250 FPS (1536 SPF)
Compression mode : Lossy
Stream size : 289 MiB (2%)
Title : DUB 5.1ch
Language : Ukrainian
Service kind : Complete Main
Default : Yes
Forced : Yes

Audio #2
ID : 3
Format : XLL
Format/Info : Digital Theater Systems
Commercial name : -HD Master Audio
Codec ID : A_DTS
Duration : 1 h 30 min
Bit rate mode : Variable
Bit rate : 2 126 kb/s
Channel(s) : 6 channels
Channel layout : C L R Ls Rs LFE
Sampling rate : 48.0 kHz
Frame rate : 93.750 FPS (512 SPF)
Bit depth : 24 bits
Compression mode : Lossless
Stream size : 1.34 GiB (9%)
Title : Original
Language : English
Default : No
Forced : No

Text
ID : 4
Format : UTF-8
Codec ID : S_TEXT/UTF8
Codec ID/Info : UTF-8 Plain Text
Duration : 1 h 23 min
Bit rate : 32 b/s
Count of elements : 798
Stream size : 19.7 KiB (0%)
Title : Full
Language : English
Default : No
Forced : No

Menu
00:00:00.000 : it:00:00:00.000
00:04:20.417 : it:00:04:20.417
00:07:44.417 : it:00:07:44.417
00:11:54.083 : it:00:11:54.083
00:16:28.208 : it:00:16:28.208
00:21:05.458 : it:00:21:05.458
00:25:25.750 : it:00:25:25.750
00:29:45.083 : it:00:29:45.083
00:34:37.250 : it:00:34:37.250
00:39:03.458 : it:00:39:03.458
00:43:16.417 : it:00:43:16.417
00:47:32.333 : it:00:47:32.333
00:51:55.417 : it:00:51:55.417
00:57:30.667 : it:00:57:30.667
01:01:45.208 : it:01:01:45.208
01:06:53.667 : it:01:06:53.667
01:11:19.042 : it:01:11:19.042
01:15:46.125 : it:01:15:46.125
01:20:40.667 : it:01:20:40.667
01:26:54.875 : it:01:26:54.875
Скріншоти:


Придбав/зведення: sergiyko


Золотий реліз (завантажене не впливає на рейтинг)
 Трекер:    Зареєстрований   

Завантажити / скачати мультфільм українською



відео для новачків



 Зареєстрований:   2020-04-06 13:28
 Розмір:   15.55 GB 
 Оцінка мультфільму:   9.9/10 (Голосів: 15)
   
ktw14 
Поважний учасник


З нами з: 24.03.11
Востаннє: 27.05.20
Повідомлень: 162

2020-02-10 12:27  
Хороший фільм. Рекомендую!
sergiyko.5 
Попереджень: 1
Попереджень: 1 


З нами з: 25.02.16
Востаннє: 28.05.20
Повідомлень: 3132

2020-04-06 13:32  
Торент оновлено. Українська доріжка 5.1 канал
xomikvp 
Новенький


З нами з: 22.11.10
Востаннє: 28.05.20
Повідомлень: 11

2020-04-06 19:59  
Добрий вечір панове то роздача буде? Бо щось години три тищина!!!
sergiyko.5 
Попереджень: 1
Попереджень: 1 


З нами з: 25.02.16
Востаннє: 28.05.20
Повідомлень: 3132

2020-04-08 15:46  
xomikvp
Роздаю. А ви куди подідись? Інші теж хочуть завантажити.

Ваш часовий пояс: GMT + 2 Години

Нова тема   Відповісти