Краще подзвоніть Солу (Сезон 5) / Better Call Saul (Season 5) (2020) AVC Ukr/Eng

Нові коментарі

Нова тема   Відповісти
Сторінка:  1, 2, 3  наступна
Автор Повідомлення
Цікава ідея 
VIP


З нами з: 26.12.11
Востаннє: 21.09.20
Повідомлень: 664

2020-02-03 22:45  
| AVC | 1080p

Краще подзвоніть Солу (Сезон 5) / Better Call Saul (Season 5) (2020) AVC Ukr/Eng


Краще подзвоніть Солу (Сезон 5) / Better Call Saul (Season 5) (2020) AVC Ukr/Eng


Жанр: комедія, кримінальний, драма
Країна: США



Кінокомпанія / телеканал: Netflix, American Movie Classics (AMC), Sony Pictures Television
Режисери: Вінс Ґіліґан, Пітер Ґулд та інші.
Актори: Боб Оденкерк, Ріа Сігорн, Патрік Фабіан, Майкл Мендо, Джин Н. Чавез, Джонатан Бенкс та інші.

Сюжет:
Історія про випробування й негаразди, які доводиться подолати Солу Ґудмену, адвокату з кримінальних справ, у той період, коли він намагається відкрити власну адвокатську контору в Альбукерке, штат Нью-Мексико. Попереду тільки небезпека і шалені гроші!


Перекладено та озвучено ТО "Цікава Ідея" на замовлення HURTOM.COM


Тривалість: 1 серія: ~ 50 хв. (цілком серій: 10)
Перелік серій:

01. Magic Man
02. 50% Off
03. The Guy for This
04. Namaste
05. Dedicado a Max
06. Wexler v. Goodman
07. JMM
08. Bagman
09. Bad Choice Road
10. Something Unforgivable
Якість: AVC
Відео:
кодек:
розмір кадру: 720 x 400
бітрейт: 1 100 кб/с

Аудіо # 1:
мова: українська | "Цікава Ідея"
переклад: професійний багатоголосий закадровий
кодек: 5.1
бітрейт: 448 кб/с

Аудіо # 2:
мова: англійська
переклад: оригінал
кодек: E- 5.1
бітрейт: 640 кб/с
Info
Код:
Format                      :
Format version              : Version 4
File size                   : 853 MiB
Duration                    : 54 min 21 s
Overall bit rate            : 2 194 kb/s
Movie name                  : Краще подзвоніть Солу / Better Call Saul - S05E01 (2020) AVC [Ukr.Eng] [Цікава Ідея]
Encoded date                : UTC 2020-02-26 19:55:12
Writing application         : v6.8.0 ('Theme for Great Cities') 32bit built on Mar  2 2014 21:27:07
Writing library             : libebml v1.3.0 + v1.4.1
Cover                       : Yes
Attachments                 : cover.png

Video
ID                          : 1
Format                      : AVC
Format/Info                 : Advanced Video Codec
Format profile              : [email protected]
Format settings             : CABAC / 5 Ref Frames
Format settings, CABAC      : Yes
Format settings, Reference  : 5 frames
Codec ID                    : V_MPEG4/ISO/AVC
Duration                    : 54 min 21 s
Bit rate                    : 1 100 kb/s
Width                       : 720 pixels
Height                      : 400 pixels
Display aspect ratio        : 16:9
Frame rate mode             : Constant
Frame rate                  : 23.976 (24000/1001) FPS
Color space                 : YUV
Chroma subsampling          : 4:2:0
Bit depth                   : 8 bits
Scan type                   : Progressive
Bits/(Pixel*Frame)          : 0.159
Stream size                 : 413 MiB (48%)
Writing library             : core 152 r2851M ba24899
Encoding settings           : cabac=1 / ref=5 / deblock=1:-1:-1 / analyse=0x3:0x113 / me=umh / subme=9 / psy=1 / psy_rd=1.00:0.15 / mixed_ref=1 / me_range=16 / chroma_me=1 / trellis=2 / 8x8dct=1 / cqm=0 / deadzone=21,11 / fast_pskip=1 / chroma_qp_offset=-3 / threads=12 / lookahead_threads=1 / sliced_threads=0 / nr=0 / decimate=1 / interlaced=0 / bluray_compat=0 / constrained_intra=0 / bframes=3 / b_pyramid=2 / b_adapt=2 / b_bias=0 / direct=3 / weightb=1 / open_gop=0 / weightp=2 / keyint=250 / keyint_min=23 / scenecut=40 / intra_refresh=0 / rc_lookahead=50 / rc=abr / mbtree=1 / bitrate=1100 / ratetol=1.0 / qcomp=0.60 / qpmin=0 / qpmax=69 / qpstep=4 / ip_ratio=1.40 / aq=1:1.00
Default                     : Yes
Forced                      : No

Audio #1
ID                          : 2
Format                      : AC-3
Format/Info                 : Audio Coding 3
Commercial name             : Dolby Digital
Codec ID                    : A_AC3
Duration                    : 54 min 21 s
Bit rate mode               : Constant
Bit rate                    : 448 kb/s
Channel(s)                  : 6 channels
Channel layout              : L R C LFE Ls Rs
Sampling rate               : 48.0 kHz
Frame rate                  : 31.250 FPS (1536 SPF)
Bit depth                   : 16 bits
Compression mode            : Lossy
Stream size                 : 174 MiB (20%)
Title                       : Українська
Language                    : Ukrainian
Service kind                : Complete Main
Default                     : Yes
Forced                      : No

Audio #2
ID                          : 3
Format                      : E-AC-3
Format/Info                 : Enhanced AC-3
Commercial name             : Dolby Digital Plus
Codec ID                    : A_EAC3
Duration                    : 54 min 21 s
Bit rate mode               : Constant
Bit rate                    : 640 kb/s
Channel(s)                  : 6 channels
Channel layout              : L R C LFE Ls Rs
Sampling rate               : 48.0 kHz
Frame rate                  : 31.250 FPS (1536 SPF)
Compression mode            : Lossy
Stream size                 : 249 MiB (29%)
Language                    : English
Service kind                : Complete Main
Default                     : No
Forced                      : No
Скріншоти



Озвучено творчим об'єднанням:
Ролі озвучили: Семен Птаха, Юля Малахова, Олег Савельник, Євген Малуха, Андрій Корзаченко та Олексій Сафін


Авторський реліз (завантажувати можна без реєстрації)
 Трекер:    Зареєстрований   

Завантажити / скачати серіал українською



відео для новачків



 Зареєстрований:   2020-04-22 13:53
 Розмір:   7.95 GB 
 Оцінка серіалу:   9.8/10 (Голосів: 124)
 Перекладено та озвучено 10 серію. Фінал сезону!
   
ryder2 
Частий відвідувач


З нами з: 02.11.17
Востаннє: 03.09.20
Повідомлень: 40

2020-02-04 12:12  
поки вийде новий сезон вже забув про що серіал Wide grin
77997997 
VIP


З нами з: 26.02.13
Востаннє: 21.09.20
Повідомлень: 1123

2020-02-04 12:17  
Майка Ермантраута тут також буде озвучувати той актор, що й в інших сезонах (Михайло Кришталь)?
tilda4334 
VIP


З нами з: 15.08.14
Востаннє: 20.09.20
Повідомлень: 1052

2020-02-04 15:05  
77997997 написано:
Майка Ермантраута тут також буде озвучувати той актор, що й в інших сезонах (Михайло Кришталь)?

А він і в озвученні від НЗП був?

77997997 
VIP


З нами з: 26.02.13
Востаннє: 21.09.20
Повідомлень: 1123

2020-02-04 15:51  
Цитата:
А він і в озвученні від НЗП був?

Був, він в них озвучує...

tilda4334 
VIP


З нами з: 15.08.14
Востаннє: 20.09.20
Повідомлень: 1052

2020-02-04 16:39  
77997997 написано:
Був, він в них озвучує...

Я думав там Войчук.

Slavchik_ua 
Частий відвідувач


З нами з: 16.01.16
Востаннє: 20.09.20
Повідомлень: 34

2020-02-26 13:32  
Ведеться, ще збір коштів?
ivan vyrvyvuho 
VIP


З нами з: 19.08.12
Востаннє: 21.09.20
Повідомлень: 1162

2020-02-26 13:45  
Slavchik_ua 
Частий відвідувач


З нами з: 16.01.16
Востаннє: 20.09.20
Повідомлень: 34

2020-02-26 14:48  
ivan vyrvyvuho
Це загальний збір, на три проекти, можливо є відокремлення)

centr2 
Частий відвідувач


З нами з: 26.09.15
Востаннє: 21.09.20
Повідомлень: 25

2020-02-26 17:13  
Коли вже 1 серія?
Цікава ідея 
VIP


З нами з: 26.12.11
Востаннє: 21.09.20
Повідомлень: 664

2020-02-26 17:28  
centr2 написано:
Коли вже 1 серія?


1 сьогодні, друга завтра.

bot 
робот


З нами з: 30.09.07
Востаннє: 26.05.05
Повідомлень: 25548

2020-02-26 23:15  
Тему перенесено з Анонси релізів до форуму Телесеріали


Цікава ідея

Цікава ідея 
VIP


З нами з: 26.12.11
Востаннє: 21.09.20
Повідомлень: 664

2020-02-26 23:17  
Переклали та озвучили 1 серію.

Ant_SUmy 
Новенький


З нами з: 07.09.08
Востаннє: 20.09.20
Повідомлень: 5

2020-02-28 20:30  
Дякую!!!
Цікава ідея 
VIP


З нами з: 26.12.11
Востаннє: 21.09.20
Повідомлень: 664

2020-02-28 22:28  
Переклали та озвучили 2 серію.
Бажаємо приємного перегляду.

AnubiS 
VIP


З нами з: 10.05.09
Востаннє: 21.09.20
Повідомлень: 389

2020-02-29 08:02  
Дякую.
[email protected] 
Частий відвідувач


З нами з: 27.11.15
Востаннє: 13.09.20
Повідомлень: 32

2020-03-01 13:36  
Дякую!
Prybulets 
Свій


З нами з: 10.09.11
Востаннє: 20.09.20
Повідомлень: 73

2020-03-01 16:28  
Дякую! Чудова озвучка!
jeekan 
Новенький


З нами з: 17.05.13
Востаннє: 20.09.20
Повідомлень: 1

2020-03-04 20:08  
Чому не озвучували НеЗупиняйПродакшн?
Цікава ідея 
VIP


З нами з: 26.12.11
Востаннє: 21.09.20
Повідомлень: 664

2020-03-05 01:40  
jeekan написано:
Чому не озвучували НеЗупиняйПродакшн?


У них і запитайте.

Manik 
Частий відвідувач


З нами з: 12.03.09
Востаннє: 19.09.20
Повідомлень: 38

2020-03-05 23:52  
3 серію отримаємо сьогодні чи завтра?
Цікава ідея 
VIP


З нами з: 26.12.11
Востаннє: 21.09.20
Повідомлень: 664

2020-03-05 23:55  
Manik написано:
3 серію отримаємо сьогодні чи завтра?


Завтра серія буде протягом дня.

centr2 
Частий відвідувач


З нами з: 26.09.15
Востаннє: 21.09.20
Повідомлень: 25

2020-03-06 09:48  
коли нова серія?
Цікава ідея 
VIP


З нами з: 26.12.11
Востаннє: 21.09.20
Повідомлень: 664

2020-03-06 12:33  
centr2 написано:
коли нова серія?


Вище ж написали, що серія буде сьогодні!

Цікава ідея 
VIP


З нами з: 26.12.11
Востаннє: 21.09.20
Повідомлень: 664

2020-03-06 18:48  
Переклали та озвучили 3 серію.
Бажаємо приємного перегляду.

mzl 
Свій


З нами з: 19.12.15
Востаннє: 01.09.20
Повідомлень: 90

2020-03-11 04:23  
дякую
centr2 
Частий відвідувач


З нами з: 26.09.15
Востаннє: 21.09.20
Повідомлень: 25

2020-03-11 07:59  
+1
Цікава ідея 
VIP


З нами з: 26.12.11
Востаннє: 21.09.20
Повідомлень: 664

2020-03-12 17:15  
Переклали та озвучили 4 серію.
Бажаємо приємного перегляду!

voljag 
Частий відвідувач


З нами з: 29.03.10
Востаннє: 19.09.20
Повідомлень: 31

2020-03-14 23:22  
Чудово. Просто мега серіальчик. Як і Фарго, в першому сезоні якого теж з'являвся Оденкірк.
N.W.A 
VIP


З нами з: 22.11.13
Востаннє: 20.09.20
Повідомлень: 354

2020-03-16 22:26  
У другому епізоді оригінальний звук помітно гіршої якості, при можливості оновіть.
Дякую.

Ваш часовий пояс: GMT + 2 Години

Нова тема   Відповісти Сторінка:  1, 2, 3  наступна