Вiллi i таємнича планета / Terra Willy: Planete inconnue (2019) 1080p Ukr/Eng | Sub Eng

Нові коментарі

Нова тема   Відповісти
Автор Повідомлення
sergiyko.5 
VIP


З нами з: 25.02.16
Востаннє: 24.02.20
Повідомлень: 2949

2020-02-03 21:11  
Вiллi i таємнича планета / Terra Willy: Planete inconnue (2019) 1080p Ukr/Eng | Sub Eng


Вiллi i таємнича планета / Terra Willy: Planete inconnue (2019) 1080p Ukr/Eng | Sub Eng

Жанр: пригоди, фантастика
Країна: Франція
Кінокомпанія: TAT Productions, Bac Films, France 3 Cinema
Режисер: Ерік Тості

Сюжет:
Ставши жертвою метеоритного дощу, космічний мандрівник Віллі потрапляє на незнайому планету. Юний дослідник залишається сам на сам із дикими джунглями і їхніми мешканцями. Разом із роботом Баком йому необхідно вижити до прибуття його батьків із рятувальною місією.




Тривалість: 01:30:03
Якість:

Відео: кодек: h264 розмір кадру: 1920 х 804 бітрейт: 8645 кб/с
Аудіо: мова: українська переклад: професійний дубльований кодек: 2.0 бітрейт: 192 кб/с
Аудіо: мова: англійська переклад: оригінал кодек: 5.1 бітрейт: 448 кб/с
Субтитри: мова: англійська тип: програмні (м'які) формат: *.srt
Про файл:
General
Unique ID : 130787313132056573301371689405853856804 (0x6264B863A9133261E350C353CF65F424)
Complete name : D:\Documents\Torrents\MULTSER_2\Terra Willy Planete inconnue.2019.1080p..Ukr.Eng.
Format :
Format version : Version 4
File size : 5.96 GiB
Duration : 1 h 30 min
Overall bit rate : 9 480 kb/s
Movie name : Terra Willy Planete inconnue 2019 1080p rip by sergiyko
Encoded date : UTC 2020-02-03 18:49:02
Writing application : v42.0.0 ('Overtime') 64-bit
Writing library : libebml v1.3.10 + v1.5.2

Video
ID : 1
Format : AVC
Format/Info : Advanced Video Codec
Format profile : [email protected]
Format settings : CABAC / 5 Ref Frames
Format settings, CABAC : Yes
Format settings, Reference : 5 frames
Codec ID : V_MPEG4/ISO/AVC
Duration : 1 h 30 min
Bit rate : 8 645 kb/s
Width : 1 920 pixels
Height : 804 pixels
Display aspect ratio : 2.40:1
Frame rate mode : Constant
Frame rate : 24.000 FPS
Color space : YUV
Chroma subsampling : 4:2:0
Bit depth : 8 bits
Scan type : Progressive
Bits/(Pixel*Frame) : 0.233
Stream size : 5.44 GiB (91%)
Title : Terra Willy Planete inconnue 2019
Writing library : core 148 r2705kMod 3f5ed56
Encoding settings : cabac=1 / ref=5 / deblock=1:-2:-2 / analyse=0x3:0x113 / me=umh / subme=11 / psy=1 / fade_compensate=0.00 / psy_rd=1.01:0.01 / mixed_ref=1 / me_range=32 / chroma_me=1 / trellis=2 / 8x8dct=1 / cqm=0 / deadzone=21,11 / fast_pskip=0 / chroma_qp_offset=-3 / threads=24 / lookahead_threads=6 / sliced_threads=0 / nr=0 / decimate=0 / interlaced=0 / bluray_compat=0 / constrained_intra=0 / fgo=0 / bframes=10 / b_pyramid=2 / b_adapt=2 / b_bias=0 / direct=3 / weightb=1 / open_gop=0 / weightp=2 / keyint=240 / keyint_min=24 / scenecut=40 / intra_refresh=0 / rc_lookahead=50 / rc=2pass / mbtree=0 / bitrate=8645 / ratetol=1.0 / qcomp=0.60 / qpmin=0 / qpmax=51 / qpstep=4 / cplxblur=20.0 / qblur=0.5 / vbv_maxrate=50000 / vbv_bufsize=62500 / nal_hrd=none / filler=0 / ip_ratio=1.40 / pb_ratio=1.30 / aq=3:0.80
Language : French
Default : Yes
Forced : No

Audio #1
ID : 2
Format : AC-3
Format/Info : Audio Coding 3
Commercial name : Dolby Digital
Codec ID : A_AC3
Duration : 1 h 30 min
Bit rate mode : Constant
Bit rate : 192 kb/s
Channel(s) : 2 channels
Channel layout : L R
Sampling rate : 48.0 kHz
Frame rate : 31.250 FPS (1536 SPF)
Compression mode : Lossy
Stream size : 124 MiB (2%)
Title : DUB MEGOGO
Language : Ukrainian
Service kind : Complete Main
Default : Yes
Forced : Yes

Audio #2
ID : 3
Format : AC-3
Format/Info : Audio Coding 3
Commercial name : Dolby Digital
Codec ID : A_AC3
Duration : 1 h 30 min
Bit rate mode : Constant
Bit rate : 640 kb/s
Channel(s) : 6 channels
Channel layout : L R C LFE Ls Rs
Sampling rate : 48.0 kHz
Frame rate : 31.250 FPS (1536 SPF)
Compression mode : Lossy
Stream size : 412 MiB (7%)
Title : Original
Language : English
Service kind : Complete Main
Default : No
Forced : No

Text
ID : 4
Format : UTF-8
Codec ID : S_TEXT/UTF8
Codec ID/Info : UTF-8 Plain Text
Duration : 1 h 23 min
Bit rate : 32 b/s
Count of elements : 798
Stream size : 19.7 KiB (0%)
Title : Full
Language : English
Default : No
Forced : No

Menu
00:00:00.000 : it:00:00:00.000
00:04:20.417 : it:00:04:20.417
00:07:44.417 : it:00:07:44.417
00:11:54.083 : it:00:11:54.083
00:16:28.208 : it:00:16:28.208
00:21:05.458 : it:00:21:05.458
00:25:25.750 : it:00:25:25.750
00:29:45.083 : it:00:29:45.083
00:34:37.250 : it:00:34:37.250
00:39:03.458 : it:00:39:03.458
00:43:16.417 : it:00:43:16.417
00:47:32.333 : it:00:47:32.333
00:51:55.417 : it:00:51:55.417
00:57:30.667 : it:00:57:30.667
01:01:45.208 : it:01:01:45.208
01:06:53.667 : it:01:06:53.667
01:11:19.042 : it:01:11:19.042
01:15:46.125 : it:01:15:46.125
01:20:40.667 : it:01:20:40.667
01:26:54.875 : it:01:26:54.875
Скріншоти:


Придбав/зведення: sergiyko


 Трекер:    Зареєстрований   

Завантажити / скачати мультфільм українською



відео для новачків



 Зареєстрований:   2020-02-03 21:42
 Розмір:   5.96 GB 
 Оцінка мультфільму:   9.9/10 (Голосів: 8)
   
Ваш часовий пояс: GMT + 2 Години

Нова тема   Відповісти