Новий Папа (Сезон 1) / The New Pope (Season 1) (2020) 720p Ukr/Eng

Нові коментарі

Нова тема   Відповісти
Автор Повідомлення
BaibaKoTV 
Свій


З нами з: 01.12.16
Востаннє: 07.08.20
Повідомлень: 50

2020-02-03 22:08  

| AVC | 720р | 1080р |

Новий Папа (Сезон 1) / The New Pope (Season 1) (2020) 720p Ukr/Eng

Новий Папа (Сезон 1) / The New Pope (Season 1) (2020) 720p Ukr/Eng


Жанр: драма
Країна: Італія, Франція, Іспанія, США



Кінокомпанія: HBO, Wildside, Haut et Court, Mediapro
Режисер: Паоло Соррентіно
Актори: Джуд Лоу, Джон Малкович, Сільвіо Орландо, Сесіль де Франс, Хав'єр Камара, Людівін Саньє та інші

Сюжет:
Тепер пап буде двоє, як у середньовіччі. Когось з них мають проголосити антипапою та вбити. Чи почнеться війна у Ватикані? Хто виживе? І, схоже, що біля папи-Лоу з'являються красиві голі жінки...
Головне питання: чи вийде якійсь палкій красуні-вірянці пробити його броню? Чи будуть у них діти? І чи стануть вони папами?


Перекладено та озвучено студією BaibaKoTV на замовлення спільноти Чарівний Ліхтар


Тривалість: 1 серія: ~1 год. (цілком серій: 9)
Перелік серій
Episode 1
Episode 2
Episode 3
Episode 4
Episode 5
Episode 6
Episode 7
Episode 8
Episode 9
Якість: 720p
Відео:
кодек:
розмір кадру: 1280 х 720
бітрейт: ~4300 кб/с

Аудіо # 1:
мова: українська
переклад: професійний багатоголосий закадровий | BaibaKoTV
кодек: 5.1/2.0
бітрейт: 640/384 кб/с

Аудіо # 2:
мова: англійська
переклад: оригінал
кодек: E- 5.1/2.0
бітрейт: 640/384 кб/с
Info
Format :
Format version : Version 4 / Version 2
File size : 2.48 GiB
Duration : 1 h 3 min
Overall bit rate : 5 598 kb/s
Encoded date : UTC 2020-01-18 23:00:25
Writing application : v15.0.0 ('Duel with the Devil') 64-bit
Writing library : libebml v1.3.5 + v1.4.5
Writing frontend : StaxRip v1.7.0.0

Video
ID : 1
Format : AVC
Format/Info : Advanced Video Codec
Format profile : [email protected]
Format settings : CABAC / 3 Ref Frames
Format settings, CABAC : Yes
Format settings, RefFrames : 3 frames
Codec ID : V_MPEG4/ISO/AVC
Duration : 1 h 3 min
Bit rate : 4 316 kb/s
Width : 1 280 pixels
Height : 720 pixels
Display aspect ratio : 16:9
Frame rate mode : Constant
Frame rate : 23.976 (24000/1001) FPS
Color space : YUV
Chroma subsampling : 4:2:0
Bit depth : 8 bits
Scan type : Progressive
Bits/(Pixel*Frame) : 0.195
Stream size : 1.91 GiB (77%)
Default : Yes
Forced : No

Audio #1
ID : 2
Format : AC-3
Format/Info : Audio Coding 3
Codec ID : A_AC3
Duration : 1 h 3 min
Bit rate mode : Constant
Bit rate : 640 kb/s
Channel(s) : 6 channels
Channel positions : Front: L C R, Side: L R, LFE
Sampling rate : 48.0 kHz
Frame rate : 31.250 FPS (1536 SPF)
Bit depth : 16 bits
Compression mode : Lossy
Stream size : 291 MiB (11%)
Language : Ukrainian
Service kind : Complete Main
Default : Yes
Forced : No

Audio #2
ID : 3
Format : E-AC-3
Format/Info : Enhanced Audio Coding 3
Codec ID : A_EAC3
Duration : 1 h 3 min
Bit rate mode : Constant
Bit rate : 640 kb/s
Channel(s) : 6 channels
Channel positions : Front: L C R, Side: L R, LFE
Sampling rate : 48.0 kHz
Frame rate : 187.500 FPS (256 SPF)
Compression mode : Lossy
Delay relative to video : 28 ms
Stream size : 291 MiB (11%)
Language : English
Service kind : Complete Main
Default : No
Forced : No
Скріншоти


Авторський реліз (завантажувати можна без реєстрації)
 Трекер:    Зареєстрований   

Завантажити / скачати серіал українською



відео для новачків



 Зареєстрований:   2020-02-21 05:00
 Розмір:   14.3 GB 
 Оцінка серіалу:   8.8/10 (Голосів: 13)
   
BaibaKoTV 
Свій


З нами з: 01.12.16
Востаннє: 07.08.20
Повідомлень: 50

2020-02-07 03:25  
Додано 6-ту серію!

BaibaKoTV 
Свій


З нами з: 01.12.16
Востаннє: 07.08.20
Повідомлень: 50

2020-02-07 17:51  
Додано 7-му серію!

4rest 
Новенький


З нами з: 14.08.08
Востаннє: 08.08.20
Повідомлень: 8

2020-02-07 22:04  
Серіал не затягнув (принаймні по перегляду 3ох епізодів), але за переклад - Байбако, ДЯКУЮ! Wide grin
BaibaKoTV 
Свій


З нами з: 01.12.16
Востаннє: 07.08.20
Повідомлень: 50

2020-02-15 20:54  
Додано 8-му серію!

BaibaKoTV 
Свій


З нами з: 01.12.16
Востаннє: 07.08.20
Повідомлень: 50

2020-02-21 05:03  
Додано заключну 9-ту серію!

foresto 
Новенький


З нами з: 30.11.15
Востаннє: 10.07.20
Повідомлень: 8

2020-02-26 20:37  
Геніальний серіал. Крута операторська і режисерська робота. Дивився як на витвір мистецтва. Шкода що це мабуть фінальний сезон... Дякую за переклад - він чудовий.
Ваш часовий пояс: GMT + 2 Години

Нова тема   Відповісти