Вiллi i таємнича планета / Terra Willy: Planete inconnue (2019) 720p Ukr/Eng | Sub Eng

Нові коментарі

Нова тема   Відповісти
Автор Повідомлення
sergiyko.5 
VIP


З нами з: 25.02.16
Востаннє: 04.07.20
Повідомлень: 3226

2020-02-03 22:07  
Вiллi i таємнича планета / Terra Willy: Planete inconnue (2019) 720p Ukr/Eng | Sub Eng


Вiллi i таємнича планета / Terra Willy: Planete inconnue (2019) 720p Ukr/Eng | Sub Eng

Жанр: пригоди, фантастика
Країна: Франція
Кінокомпанія: TAT Productions, Bac Films, France 3 Cinema
Режисер: Ерік Тості

Сюжет:
Ставши жертвою метеоритного дощу, космічний мандрівник Віллі потрапляє на незнайому планету. Юний дослідник залишається сам на сам із дикими джунглями і їхніми мешканцями. Разом із роботом Баком йому необхідно вижити до прибуття його батьків із рятувальною місією.




Тривалість: 01:30:03
Якість:

Відео: кодек: h264 розмір кадру: 1280 х 536 бітрейт: 3800 кб/с
Аудіо: мова: українська переклад: професійний дубльований кодек: 5.1 бітрейт: 448 кб/с
Аудіо: мова: англійська переклад: оригінал кодек: 5.1 бітрейт: 448 кб/с
Субтитри: мова: англійська тип: програмні (м'які) формат: *.srt
Про файл:
General
Unique ID : 67786090160802892168075463646165928678 (0x32FF2047215BB2D67AFB6DE4C04D0AE6)
Complete name : D:\Documents\Torrents\Rizne\Terra Willy Planete inconnue.2019.720p..Ukr.Eng.
Format :
Format version : Version 4
File size : 3.05 GiB
Duration : 1 h 30 min
Overall bit rate : 4 852 kb/s
Movie name : Terra Willy Planete inconnue 2019 720p rip by sergiyko
Encoded date : UTC 2020-04-02 12:55:46
Writing application : v44.0.0 ('Domino') 64-bit
Writing library : libebml v1.3.10 + v1.5.2

Video
ID : 1
Format : AVC
Format/Info : Advanced Video Codec
Format profile : [email protected]
Format settings : CABAC / 9 Ref Frames
Format settings, CABAC : Yes
Format settings, Reference : 9 frames
Codec ID : V_MPEG4/ISO/AVC
Duration : 1 h 30 min
Bit rate : 3 762 kb/s
Width : 1 280 pixels
Height : 536 pixels
Display aspect ratio : 2.40:1
Frame rate mode : Constant
Frame rate : 24.000 FPS
Color space : YUV
Chroma subsampling : 4:2:0
Bit depth : 8 bits
Scan type : Progressive
Bits/(Pixel*Frame) : 0.228
Stream size : 2.37 GiB (78%)
Title : Terra Willy Planete inconnue 2019
Writing library : core 157 r2969 d4099dd
Encoding settings : cabac=1 / ref=9 / deblock=1:-3:-2 / analyse=0x3:0x133 / me=umh / subme=11 / psy=1 / psy_rd=1.00:0.05 / mixed_ref=1 / me_range=48 / chroma_me=1 / trellis=2 / 8x8dct=1 / cqm=0 / deadzone=21,11 / fast_pskip=0 / chroma_qp_offset=-3 / threads=12 / lookahead_threads=2 / sliced_threads=0 / nr=0 / decimate=1 / interlaced=0 / bluray_compat=0 / constrained_intra=0 / bframes=8 / b_pyramid=2 / b_adapt=2 / b_bias=0 / direct=3 / weightb=1 / open_gop=0 / weightp=2 / keyint=250 / keyint_min=23 / scenecut=40 / intra_refresh=0 / rc_lookahead=60 / rc=crf / mbtree=0 / crf=15.5 / qcomp=0.60 / qpmin=0 / qpmax=69 / qpstep=4 / vbv_maxrate=50000 / vbv_bufsize=62500 / crf_max=0.0 / nal_hrd=none / filler=0 / ip_ratio=1.40 / pb_ratio=1.30 / aq=3:0.90
Language : French
Default : Yes
Forced : No

Audio #1
ID : 2
Format : AC-3
Format/Info : Audio Coding 3
Commercial name : Dolby Digital
Codec ID : A_AC3
Duration : 1 h 30 min
Bit rate mode : Constant
Bit rate : 448 kb/s
Channel(s) : 6 channels
Channel layout : L R C LFE Ls Rs
Sampling rate : 48.0 kHz
Frame rate : 31.250 FPS (1536 SPF)
Compression mode : Lossy
Stream size : 289 MiB (9%)
Title : DUB 5.1ch
Language : Ukrainian
Service kind : Complete Main
Default : Yes
Forced : Yes

Audio #2
ID : 3
Format : AC-3
Format/Info : Audio Coding 3
Commercial name : Dolby Digital
Codec ID : A_AC3
Duration : 1 h 30 min
Bit rate mode : Constant
Bit rate : 640 kb/s
Channel(s) : 6 channels
Channel layout : L R C LFE Ls Rs
Sampling rate : 48.0 kHz
Frame rate : 31.250 FPS (1536 SPF)
Compression mode : Lossy
Stream size : 412 MiB (13%)
Language : English
Service kind : Complete Main
Default : No
Forced : No

Text
ID : 4
Format : UTF-8
Codec ID : S_TEXT/UTF8
Codec ID/Info : UTF-8 Plain Text
Duration : 1 h 23 min
Bit rate : 32 b/s
Count of elements : 798
Stream size : 19.7 KiB (0%)
Title : Full
Language : English
Default : No
Forced : No

Menu
00:00:00.000 : it:00:00:00.000
00:04:20.417 : it:00:04:20.417
00:07:44.417 : it:00:07:44.417
00:11:54.083 : it:00:11:54.083
00:16:28.208 : it:00:16:28.208
00:21:05.458 : it:00:21:05.458
00:25:25.750 : it:00:25:25.750
00:29:45.083 : it:00:29:45.083
00:34:37.250 : it:00:34:37.250
00:39:03.458 : it:00:39:03.458
00:43:16.417 : it:00:43:16.417
00:47:32.333 : it:00:47:32.333
00:51:55.417 : it:00:51:55.417
00:57:30.667 : it:00:57:30.667
01:01:45.208 : it:01:01:45.208
01:06:53.667 : it:01:06:53.667
01:11:19.042 : it:01:11:19.042
01:15:46.125 : it:01:15:46.125
01:20:40.667 : it:01:20:40.667
01:26:54.875 : it:01:26:54.875
Скріншоти:


Придбав/зведення: sergiyko


 Трекер:    Зареєстрований   

Завантажити / скачати мультфільм українською



відео для новачків



 Зареєстрований:   2020-04-02 16:01
 Розмір:   3.05 GB 
 Оцінка мультфільму:   10/10 (Голосів: 12)
   
sergiyko.5 
VIP


З нами з: 25.02.16
Востаннє: 04.07.20
Повідомлень: 3226

2020-04-02 16:02  
Торент оновлено. Українська звукова доріжка тепер має 6 каналів.
Ваш часовий пояс: GMT + 2 Години

Нова тема   Відповісти