Вiллi i таємнича планета / Terra Willy: Planete inconnue (2019)

Нові коментарі

Нова тема   Відповісти
Автор Повідомлення
sergiyko.5 
VIP


З нами з: 25.02.16
Востаннє: 06.07.20
Повідомлень: 3239

2020-02-03 21:58  
Вiллi i таємнича планета / Terra Willy: Planete inconnue (2019)


Вiллi i таємнича планета / Terra Willy: Planete inconnue (2019)

Жанр: пригоди, фантастика
Країна: Франція
Кінокомпанія: TAT Productions, Bac Films, France 3 Cinema
Режисер: Ерік Тості

Сюжет:
Ставши жертвою метеоритного дощу, космічний мандрівник Віллі потрапляє на незнайому планету. Юний дослідник залишається сам на сам із дикими джунглями і їхніми мешканцями. Разом із роботом Баком йому необхідно вижити до прибуття його батьків із рятувальною місією.




Тривалість: 01:30:03
Якість:

Відео: кодек: розмір кадру: 720 х 304 бітрейт: 1865 кб/с
Аудіо: мова: українська переклад: професійний дубльований кодек: 5.1 бітрейт: 448 кб/с
Про файл:
General
Complete name : D:\Documents\Torrents\Rizne\Terra.Willy.Planete.Inconnue.2019..avi
Format : AVI
Format/Info : Audio Video Interleave
File size : 1.46 GiB
Duration : 1 h 30 min
Overall bit rate : 2 322 kb/s
Writing application : VirtualDubMod 1.5.10.3 | www.virtualdub-fr.org || (build 2550/release)
Writing library : VirtualDubMod build 2550/release

Video
ID : 0
Format : MPEG-4 Visual
Format profile : Advanced [email protected]
Format settings : BVOP1 / Custom Matrix
Format settings, BVOP : 1
Format settings, QPel : No
Format settings, GMC : No warppoints
Format settings, Matrix : Custom
Codec ID :
Codec ID/Hint :
Duration : 1 h 30 min
Bit rate : 1 865 kb/s
Width : 720 pixels
Height : 304 pixels
Display aspect ratio : 2.35:1
Frame rate : 24.000 FPS
Color space : YUV
Chroma subsampling : 4:2:0
Bit depth : 8 bits
Scan type : Progressive
Compression mode : Lossy
Bits/(Pixel*Frame) : 0.355
Stream size : 1.17 GiB (80%)
Writing library : 73

Audio
ID : 1
Format : AC-3
Format/Info : Audio Coding 3
Commercial name : Dolby Digital
Codec ID : 2000
Duration : 1 h 30 min
Bit rate mode : Constant
Bit rate : 448 kb/s
Channel(s) : 6 channels
Channel layout : L R C LFE Ls Rs
Sampling rate : 48.0 kHz
Frame rate : 31.250 FPS (1536 SPF)
Compression mode : Lossy
Stream size : 289 MiB (19%)
Alignment : Split across interleaves
Interleave, duration : 42 ms (1.00 video frame)
Interleave, preload duratio : 500 ms
Service kind : Complete Main
Скріншоти:


Придбав/зведення: sergiyko


 Трекер:    Зареєстрований   

Завантажити / скачати мультфільм українською



відео для новачків



 Зареєстрований:   2020-04-06 13:31
 Розмір:   1.46 GB 
 Оцінка мультфільму:   9.9/10 (Голосів: 52)
   
sergiyko.5 
VIP


З нами з: 25.02.16
Востаннє: 06.07.20
Повідомлень: 3239

2020-04-06 15:16  
Торент оновлено. Покращено звукову доріжку.
Banderivecj 
Новенький


З нами з: 22.03.14
Востаннє: 24.06.20
Повідомлень: 23

2020-04-15 12:27  
хороший мульт
Ваш часовий пояс: GMT + 2 Години

Нова тема   Відповісти