Голос Країни. Топ 20 (2019) 720p

Нові коментарі

Нова тема   Відповісти
Останній раз роздавалося Бор_ман (2020-02-17)
Автор Повідомлення
killer2015 
Поважний учасник


З нами з: 30.01.15
Востаннє: 02.12.20
Повідомлень: 200

2020-02-03 13:48  
Голос Країни. Топ 20 (2019) 720p

Голос Країни. Топ 20 (2019) 720p


Жанр: Вокальне талант-шоу
Країна: Україна

Телеканал:
Опис:

Відомі українськи зірки Тіна Кароль, Потап, Monatik, Святослав Вакарчук та Сергій Бабкін познайомлять глядачів з особистою двадцяткою кращих виступів на головному шоу країни.


Тривалість: 5х ~ 01:05:00
Якість:
Відео:
кодек: MPEG-4 AVC
розмір кадру: 1280 х 720
бітрейт: 908 кб/с

Аудіо:
мова: українська, російська
переклад: оригінал
кодек: 2.0
бітрейт: 128 кб/с
Перелік серій
ТОП-20 від MONATIK
ТОП-20 від ПОТАПА
ТОП-20 від Святослава Вакарчука
ТОП-20 від Сергія Бабкіна
ТОП-20 від Тіни Кароль Кароль
МедіаІнфо
General
Complete name : G:\Фільми\Голос країни. Топ 20 (2019)\ТОП-20 від MONATIK.mp4
Format : MPEG-4
Format profile : Base Media / Version 2
Codec ID : mp42 (isom/mp42)
File size : 490 MiB
Duration : 1 h 5 min
Overall bit rate mode : Variable
Overall bit rate : 1 040 kb/s
Encoded date : UTC 2019-08-22 21:26:03
Tagged date : UTC 2019-08-22 21:26:03
gsst : 0
gstd : 3956308

Video
ID : 1
Format : AVC
Format/Info : Advanced Video Codec
Format profile : [email protected]
Format settings : CABAC / 3 Ref Frames
Format settings, CABAC : Yes
Format settings, Reference frames : 3 frames
Codec ID : avc1
Codec ID/Info : Advanced Video Coding
Duration : 1 h 5 min
Bit rate : 908 kb/s
Width : 1 280 pixels
Height : 720 pixels
Display aspect ratio : 16:9
Frame rate mode : Constant
Frame rate : 25.000 FPS
Color space : YUV
Chroma subsampling : 4:2:0
Bit depth : 8 bits
Scan type : Progressive
Bits/(Pixel*Frame) : 0.039
Stream size : 428 MiB (87%)
Title : ISO Media file produced by Google Inc. Created on: 08/22/2019.
Writing library : core 155 r2901 7d0ff22
Encoded date : UTC 2019-08-22 21:26:03
Tagged date : UTC 2019-08-22 21:26:03
Color range : Limited
Color primaries : BT.709
Transfer characteristics : BT.709
Matrix coefficients : BT.709
Codec configuration box : avcC

Audio
ID : 2
Format : LC
Format/Info : Advanced Audio Codec Low Complexity
Codec ID : mp4a-40-2
Duration : 1 h 5 min
Bit rate mode : Variable
Bit rate : 128 kb/s
Channel(s) : 2 channels
Channel layout : L R
Sampling rate : 44.1 kHz
Frame rate : 43.066 FPS (1024 SPF)
Compression mode : Lossy
Stream size : 60.4 MiB (12%)
Title : ISO Media file produced by Google Inc. Created on: 08/22/2019.
Language : English
Encoded date : UTC 2019-08-22 21:26:03
Tagged date : UTC 2019-08-22 21:26:03
Скріншоти



Джерело:
Особиста оцінка: 8 - мені сподобалося


Бронзовий реліз (на рейтинг впливає 75% завантаженого)
 Трекер:    Зареєстрований   

Завантажити / скачати передачу українською



відео для новачків



 Зареєстрований:   2020-02-03 13:48
 Розмір:   3.64 GB 
 Оцінка передачі:   3.3/10 (Голосів: 4)
   
11FrYkT 
Модератор відео


З нами з: 20.02.11
Востаннє: 02.12.20
Повідомлень: 7045

2020-02-23 12:25  
killer2015 , винесіть жюрі і ведучих окремо
Ваш часовий пояс: GMT + 2 Години

Нова тема   Відповісти