30 днів ночі / 30 Days of Night (2007) 1080p [Open Matte] Ukr/Eng | Sub Eng

Нові коментарі

Нова тема   Відповісти
Автор Повідомлення
MakRA 
VIP


З нами з: 11.11.18
Востаннє: 26.09.20
Повідомлень: 1120

2020-02-03 12:00  
30 днів ночі / 30 Days of Night (2007) 1080p [Open Matte] Ukr/Eng | Sub Eng


Альтернативні постери:



Жанр: екшн, жахи, трилер
Країна: США , Нова Зеландія



Кінокомпанія: Columbia Pictures, 30 Days of Night, Dark Horse Entertainment & Ghost House Pictures
Режисер: Дейвід Слейд [David Slade]
Актори: Джош Хартнетт [Josh Hartnett], Мелісса Джордж [Melissa George], Денні Х’юстон [Danny Huston], Бен Фостер [Ben Foster], Марк Бун-мол. [Mark Boone Junior], Марк Рендалл [Mark Rendall], Ембер Сейнсбурі [Amber Sainsbury], Ману Беннетт [Manu Bennett], Меган Френіч [Megan Franich], Джоел Тобек [Joel Tobeck]

Сюжет:
Жити на півночі складно, але люди звикають до будь-яких умов, до постійного холоду, великої кількості снігу, а на півночі Аляски, жителі звикли до того факту, що кожен рік їх чекають 30 днів ночі. У зимовий період невелике містечко Бероу занурюється в темряву і протягом 30 днів не бачить сонця. Це цілком звичайне фізичне явище для півночі, називається арктична ніч. З настанням арктичної ночі в місті починають відбуватися дивні, жахливі речі, а місцевий шериф Ебен Олсон підозрює, що цей період для міста не пройде гладко...

Картина є екранізацією графічного роману, написаного Стівом Найлсом та ілюстрованого Беном Темплсмітом. Ідея виникла у Найлса під час його перебування на Алясці. Поєднавши стародавні легенди про вампірів та сучасні умови життя у відрізаному від світу містечку, автор написав моторошний і водночас реалістичний роман. Центральна сюжетна лінія першоджерела дещо відрізняється від фільму: у стрічці образи антагоністів спрощені до уявлень про вампірів як “носферату” зі старих чорно-білих картин. Мови, якою у “30 днях” розмовляють упирі, насправді не існує: її спеціально вигадали Найлс, продюсер Сем Реймі та виконавець ролі головного лиходія Г'юстон. У 2010 вийшов сіквел: "30 Days of Night: Dark Days"


Тривалість: 01:53:19
Якість: 1080p Open Matte [Amazon]- має більше наповнення кадру в порівнянні з блуреєм
Відео:
кодек:
розмір кадру: 1920 х 1080
бітрейт: 8535 кб/с
примітка: по боках у деяких кадрах картинка трохи обрізана (зліва або справа), також в кадрі іноді присутній логотип "Starz"

Аудіо # 1:
мова: українська
переклад: двоголосий закадровий| cтудія "Контакт"
кодек: 5.1
бітрейт: 384 кб/с

Аудіо # 2:
мова: англійська
переклад: оригінал
кодек: 5.1
бітрейт: 1510 кб/с

Аудіо # 3:
мова: англійська
переклад: оригінал
кодек: 5.1
бітрейт: 384 кб/с

Субтитри # 1-3: (Full) | (SDH) | Vampire Dialogue
мова: англійська
тип: програмні (м'які)
формат: *.srt

Збережено оригінальні розділи, як на Blu-ray.
Info
General
Unique ID : 337507793823504147857268411285037060950 (0xFDE9A2FC137B21A88FEC61CF85FB1356)
Complete name : F:\+ Open Matte Movie Collection\30 Days of Night (2007) 1080p [Open Matte] UkrEng Sub Eng [Hurtom].
Format :
Format version : Version 4
File size : 8.56 GiB
Duration : 1 h 53 min
Overall bit rate : 10.8 Mb/s
Movie name : 30 днів ночі / 30 Days of Night (2007) 1080p [Open Matte] Ukr/Eng | Sub Eng [Hurtom]
Encoded date : UTC 2020-02-02 23:33:39
Writing application : v25.0.0 ('Prog Noir') 64-bit
Writing library : libebml v1.3.6 + v1.4.9
Cover : Yes
Attachments : cover.jpg

Video
ID : 1
Format : AVC
Format/Info : Advanced Video Codec
Format profile : [email protected]
Format settings : CABAC / 4 Ref Frames
Format settings, CABAC : Yes
Format settings, Reference fra : 4 frames
Codec ID : V_MPEG4/ISO/AVC
Duration : 1 h 53 min
Bit rate : 8 535 kb/s
Width : 1 920 pixels
Height : 1 080 pixels
Display aspect ratio : 16:9
Frame rate mode : Constant
Frame rate : 23.976 (24000/1001) FPS
Color space : YUV
Chroma subsampling : 4:2:0
Bit depth : 8 bits
Scan type : Progressive
Bits/(Pixel*Frame) : 0.172
Stream size : 6.76 GiB (79%)
Title : 30 Days of Night (2007) 1080p [Open Matte] Ukr/Eng | Sub Eng [Hurtom]
Language : Ukrainian
Default : Yes
Forced : Yes
Color range : Limited
Color primaries : BT.709
Transfer characteristics : BT.709
Matrix coefficients : BT.709

Audio #1
ID : 2
Format : AC-3
Format/Info : Audio Coding 3
Commercial name : Dolby Digital
Codec ID : A_AC3
Duration : 1 h 53 min
Bit rate mode : Constant
Bit rate : 384 kb/s
Channel(s) : 6 channels
Channel layout : L R C LFE Ls Rs
Sampling rate : 48.0 kHz
Frame rate : 31.250 FPS (1536 SPF)
Bit depth : 16 bits
Compression mode : Lossy
Stream size : 311 MiB (4%)
Title : DVO [1+1] 5.1 | студія "Контакт"
Language : Ukrainian
Service kind : Complete Main
Default : Yes
Forced : Yes

Audio #2
ID : 3
Format :
Format/Info : Digital Theater Systems
Codec ID : A_DTS
Duration : 1 h 53 min
Bit rate mode : Constant
Bit rate : 1 510 kb/s
Channel(s) : 6 channels
Channel layout : C L R Ls Rs LFE
Sampling rate : 48.0 kHz
Frame rate : 93.750 FPS (512 SPF)
Bit depth : 24 bits
Compression mode : Lossy
Stream size : 1.19 GiB (14%)
Title : Original 5.1
Language : English
Default : No
Forced : No

Audio #3
ID : 4
Format : AC-3
Format/Info : Audio Coding 3
Commercial name : Dolby Digital
Codec ID : A_AC3
Duration : 1 h 53 min
Bit rate mode : Constant
Bit rate : 384 kb/s
Channel(s) : 6 channels
Channel layout : L R C LFE Ls Rs
Sampling rate : 48.0 kHz
Frame rate : 31.250 FPS (1536 SPF)
Bit depth : 16 bits
Compression mode : Lossy
Delay relative to video : 10 s 700 ms
Stream size : 311 MiB (4%)
Title : Original 5.1
Language : English
Service kind : Complete Main
Default : No
Forced : No

Text #1
ID : 5
Format : UTF-8
Codec ID : S_TEXT/UTF8
Codec ID/Info : UTF-8 Plain Text
Duration : 1 h 41 min
Bit rate : 27 b/s
Count of elements : 731
Stream size : 20.2 KiB (0%)
Title : Eng (Full) | BluRay
Language : English
Default : No
Forced : No

Text #2
ID : 6
Format : UTF-8
Codec ID : S_TEXT/UTF8
Codec ID/Info : UTF-8 Plain Text
Duration : 1 h 46 min
Bit rate : 30 b/s
Count of elements : 1128
Stream size : 24.1 KiB (0%)
Title : Eng (SDH) | Amazon
Language : English
Default : No
Forced : No

Text #3
ID : 7
Format : UTF-8
Codec ID : S_TEXT/UTF8
Codec ID/Info : UTF-8 Plain Text
Duration : 1 h 5 min
Bit rate : 1 b/s
Count of elements : 23
Stream size : 538 Bytes (0%)
Title : Eng | Vampire Dialogue
Language : English
Default : No
Forced : No

Menu
00:00:00.000 : :Chapter 01
00:06:31.140 : :Chapter 02
00:14:51.432 : :Chapter 03
00:21:05.639 : :Chapter 04
00:28:12.899 : :Chapter 05
00:35:53.151 : :Chapter 06
00:41:37.995 : :Chapter 07
00:50:26.440 : :Chapter 08
00:54:39.901 : :Chapter 09
01:02:24.449 : :Chapter 10
01:09:03.264 : :Chapter 11
01:14:49.443 : :Chapter 12
01:23:20.578 : :Chapter 13
01:26:41.070 : :Chapter 14
01:33:37.111 : :Chapter 15
01:38:00.332 : :Chapter 16
Скріншоти
Джерело: &
Подяка п. dvorsky за сиру доріжку та п. MAKAPOHHIK за зведення.
Особиста оцінка: 8 - мені сподобалося


 Трекер:    Зареєстрований   

Завантажити / скачати фільм українською



відео для новачків



 Зареєстрований:   2020-02-03 12:00
 Розмір:   8.56 GB 
 Оцінка фільму:   10/10 (Голосів: 9)
   
Інші релізи
Ваш часовий пояс: GMT + 2 Години

Нова тема   Відповісти