Тарзан 2 / Tarzan II (2005) 1080p Ukr/Eng | Sub Eng

Нові коментарі

Нова тема   Відповісти
Автор Повідомлення
Anonymous 







2020-02-02 16:22  
Тарзан 2 / Tarzan II (2005) 1080p Ukr/Eng | Sub Eng

Тарзан 2 / Tarzan II (2005) 1080p Ukr/Eng | Sub Eng


Жанр: анімація, пригодницький, сімейний
Країна: США



Кінокомпанія: DisneyToon Studios, Toon City, Walt Disney Pictures
Режисер: Браян Сміт
Актори: Гаррісон Чед, Георг Карлін, Ґленн Клоз, Бред Ґарретт, Рон Пірман

Сюжет:
До того, як стати Королем Джунглів, Тарзан був незграбним маленьким хлопчиком, що намагається пристосуватися до навколишнього світу. Але одного разу він робить помилку і тим самим піддає ризику свою сім'ю. З цього моменту Тарзан вирішує, що їм буде безпечніше без нього, і покидає тих, кого любить.
Під час своєї небезпечної подорожі Тарзан знайомиться із загадковим Зугором - самим могутнім представником тих місць. Будучи разом, Тарзан і Зугор розуміють, що бути різними не так вже й погано, а друзі і сім'я - дві найголовніші цінності на світі.


Тривалість: 01:11:31
Якість: 1080p
Відео:
кодек:
розмір кадру: 1912х1072
бітрейт: 5094 кб/с

Аудіо # 1:
мова: українська
переклад: професійний дубльований
кодек: 2.0
бітрейт: 192 кб/с

Аудіо # 2:
мова: англійська
переклад: оригінал
кодек: 5.1
бітрейт: 384 кб/с

Субтитри:
мова: англійська
тип: програмні (м'які)
формат: *.srt
Info
General
Unique ID : 206874894733001015232947614858814339349 (0x9BA2A7CBA00EE5FD92BCFE7AAA82B915)
Complete name : H:\Toloka\2020\Tarzan II (2005) 1080p.
Format :
Format version : Version 4
File size : 2.89 GiB
Duration : 1 h 11 min
Overall bit rate : 5 785 kb/s
Encoded date : UTC 2020-02-02 14:18:12
Writing application : v6.1.0 ('Old Devil') built on Mar 4 2013 09:10:42
Writing library : libebml v1.3.0 + v1.4.0

Video
ID : 1
Format : AVC
Format/Info : Advanced Video Codec
Format profile : [email protected]
Format settings : CABAC / 4 Ref Frames
Format settings, CABAC : Yes
Format settings, RefFrames : 4 frames
Codec ID : V_MPEG4/ISO/AVC
Duration : 1 h 11 min
Bit rate : 5 094 kb/s
Width : 1 912 pixels
Height : 1 072 pixels
Display aspect ratio : 16:9
Frame rate mode : Constant
Frame rate : 23.976 (24000/1001) FPS
Color space : YUV
Chroma subsampling : 4:2:0
Bit depth : 8 bits
Scan type : Progressive
Bits/(Pixel*Frame) : 0.104
Stream size : 2.54 GiB (88%)
Default : Yes
Forced : No
Color range : Limited
Color primaries : BT.709
Transfer characteristics : BT.709
Matrix coefficients : BT.709
Statistics Tags Issue : v9.5.0 ('Quiet Fire') 64bit 2016-11-20 19:44:20 / v6.1.0 ('Old Devil') built on Mar 4 2013 09:10:42 2020-02-02 14:18:12
FromStats_BitRate : 5209678
FromStats_Duration : 01:11:31.454000000
FromStats_FrameCount : 102892
FromStats_StreamSize : 2794637117

Audio #1
ID : 2
Format : AC-3
Format/Info : Audio Coding 3
Commercial name : Dolby Digital
Codec ID : A_AC3
Duration : 1 h 11 min
Bit rate mode : Constant
Bit rate : 192 kb/s
Channel(s) : 2 channels
Channel layout : L R
Sampling rate : 48.0 kHz
Frame rate : 31.250 FPS (1536 SPF)
Bit depth : 16 bits
Compression mode : Lossy
Stream size : 98.2 MiB (3%)
Title : UKR (1+1)
Language : Ukrainian
Service kind : Complete Main
Default : Yes
Forced : Yes

Audio #2
ID : 3
Format : AC-3
Format/Info : Audio Coding 3
Commercial name : Dolby Digital
Codec ID : A_AC3
Duration : 1 h 11 min
Bit rate mode : Constant
Bit rate : 384 kb/s
Channel(s) : 6 channels
Channel layout : L R C LFE Ls Rs
Sampling rate : 48.0 kHz
Frame rate : 31.250 FPS (1536 SPF)
Bit depth : 16 bits
Compression mode : Lossy
Stream size : 196 MiB (7%)
Title : English
Language : English
Service kind : Complete Main
Default : No
Forced : No
Statistics Tags Issue : v9.5.0 ('Quiet Fire') 64bit 2016-11-20 19:44:20 / v6.1.0 ('Old Devil') built on Mar 4 2013 09:10:42 2020-02-02 14:18:12
FromStats_BitRate : 384000
FromStats_Duration : 01:11:09.408000000
FromStats_FrameCount : 133419
FromStats_StreamSize : 204931584

Text
ID : 4
Format : UTF-8
Codec ID : S_TEXT/UTF8
Codec ID/Info : UTF-8 Plain Text
Title : English SRT
Language : English
Default : No
Forced : No
Statistics Tags Issue : v9.5.0 ('Quiet Fire') 64bit 2016-11-20 19:44:20 / v6.1.0 ('Old Devil') built on Mar 4 2013 09:10:42 2020-02-02 14:18:12
FromStats_BitRate : 53
FromStats_Duration : 01:07:11.050000000
FromStats_FrameCount : 1000
FromStats_StreamSize : 27185

Menu
00:00:00.000 : en:Opening Titles / "Son of Man"
00:07:16.000 : en:Family Tree
00:12:00.000 : en:Alone / "Leaving Home"
00:19:48.000 : en:Escaping the Zugor
00:24:07.000 : en:Secret Revealed
00:28:36.000 : en:Searching for Tarzan
00:33:44.000 : en:We Found a Gorilla
00:41:58.000 : en:I'm a Zugor
00:46:09.000 : en:Betrayed
00:52:50.000 : en:Bullies
00:54:41.000 : en:Rescue
01:00:15.000 : en:End Credits / "Who am I?"
Скріншоти






За доріжку подяка п.: urij546724, Givi
Особиста подяка пану denixx за надану матеріальну допомогу на підтримку цього і майбутніх релізів.
Джерело:


 Трекер:    Зареєстрований   

Завантажити / скачати мультфільм українською



відео для новачків



 Зареєстрований:   2020-02-02 16:22
 Розмір:   2.89 GB 
 Оцінка мультфільму:   9.7/10 (Голосів: 3)
   
Інші релізи
   Тарзан 2 / Tarzan II (2005) HDTV 1080i Ukr/Eng | Sub Ukr sergiyko.5  2 / 0   3.17 GB   2018-11-13 23:20 
   Тарзан 2 / Tarzan II (2005) Ukr/Eng Givi  1 / 0   1.28 GB   2011-02-24 22:02 
Ваш часовий пояс: GMT + 2 Години

Нова тема   Відповісти