Сімпсони (Сезон 1) / The Simpsons (Season 1) (1989-1990) H.265 480p Ukr/Eng | Sub Eng

Нові коментарі

Нова тема   Відповісти
Автор Повідомлення
kittkatt 
Частий відвідувач


З нами з: 23.11.19
Востаннє: 24.02.20
Повідомлень: 30

2020-02-02 04:17  
Сімпсони (Сезон 1) / The Simpsons (Season 1) (1989-1990) H.265 480p Ukr/Eng | Sub Eng
жанр: анімаційний ситком, комедія, пародія
країна: США
кінокомпанія: Gracie Films, 20th Century Fox Television
режисер: Мет Ґрейнінґ (Matt Groening)
актори: Ден Касталанетта (Гомер), Джулі Кавнер (Мардж), Ненсі Картрайт (Барт), Ядлі Сміт (Ліса), Гаррі Ширер (Нед Фландерс і Монтгомері Бернз) та інші.
Сюжет:
«Сімпсони» (англ. The Simpsons) — американський анімаційний серіал, створений Меттом Ґрейнінґом для компанії Fox. Мультсеріал — сатирична пародія на стиль життя середнього класу США, втілена в сім'ї Сімпсонів, яка складається з Гомера, Мардж, Барта, Ліси та Меґґі. Більшість подій відбуваються у вигаданому містечку Спрингфілді (англ. Springfield). Шоу висміює численні аспекти життя людей, американську культуру, суспільство, навіть американське телебачення.

тривалість: 13x ~23:00
Перелік
01 - Сімпсони смажаться на відкритому вогні
02 - Геній Барт
03 - Одіссея Гомера
04 - Не має місця, ганебнішого будинку
05 - Генерал Барт
06 - Бідна Ліса
07 - Заклик Сімпсонів
08 - Базікаюча голова
09 - Життя на повну котушку
10 - Нічні пригоди Гомера
11 - Блінчики гніву
12 - Красті заарештований
13 - Один з чарівних вечорів
Відео:
кодек: H.265
розмір кадру: 630 х 480
бітрейт: 244 кб/с
Аудіо # 1:
мова: українська
переклад: професійний дубльований | Студія "Пілот", на замовлення М1
кодек: HE-AACv2
бітрейт: 28 кб/с
Аудіо # 2:
мова: англійська
переклад: оригінал
кодек: HE-AACv2
бітрейт: 28 кб/с
Субтитри:
мова: англійська
тип: програмні (м'які)
формат: *.srt
snapshots
Info
General
Format :
Format version : Version 4
File size : 50.3 MiB
Duration : 23 min 12 s
Overall bit rate : 303 kb/s
Writing application : v41.0.0 ('Smarra') 64-bit
Writing library : libebml v1.3.9 + v1.5.2

Video
ID : 1
Format : HEVC
Format/Info : High Efficiency Video Coding
Format profile : Format [email protected]@Main
Codec ID : V_MPEGH/ISO/HEVC
Duration : 23 min 12 s
Bit rate : 245 kb/s
Width : 630 pixels
Height : 480 pixels
Display aspect ratio : 4:3
Frame rate mode : Constant
Frame rate : 23.976 (24000/1001) FPS
Color space : YUV
Chroma subsampling : 4:2:0
Bit depth : 12 bits
Bits/(Pixel*Frame) : 0.034
Stream size : 40.6 MiB (81%)
Writing library : x265 3.2.1+1-b5c86a64bbbe:[Windows][GCC 9.2.0][64 bit] 12bit
Language : English
Default : Yes
Forced : No
Color range : Limited
Color primaries : BT.709
Transfer characteristics : BT.709
Matrix coefficients : BT.709

Audio #1
ID : 2
Format : LC SBR PS
Format/Info : Advanced Audio Codec Low Complexity with Spectral Band Replication and Parametric Stereo
Commercial name : HE-AACv2
Format settings : Implicit / Explicit
Codec ID : A_AAC-2
Duration : 23 min 12 s
Bit rate : 28.0 kb/s
Channel(s) : 1 channel
Channel(s)_Original : 2 channels
ChannelLayout_Original : C
Sampling rate : 48.0 kHz
Frame rate : 23.438 FPS (2048 SPF)
Compression mode : Lossy
Delay relative to video : 43 ms
Stream size : 4.65 MiB (9%)
Language : Ukrainian
Default : Yes
Forced : No

Audio #2
ID : 3
Format : LC SBR PS
Format/Info : Advanced Audio Codec Low Complexity with Spectral Band Replication and Parametric Stereo
Commercial name : HE-AACv2
Format settings : Implicit / Explicit
Codec ID : A_AAC-2
Duration : 23 min 12 s
Bit rate : 28.0 kb/s
Channel(s) : 1 channel
Channel(s)_Original : 2 channels
ChannelLayout_Original : C
Sampling rate : 48.0 kHz
Frame rate : 23.438 FPS (2048 SPF)
Compression mode : Lossy
Delay relative to video : 43 ms
Stream size : 4.65 MiB (9%)
Language : English
Default : No
Forced : No

Text
ID : 4
Format : UTF-8
Muxing mode : zlib
Codec ID : S_TEXT/UTF8
Codec ID/Info : UTF-8 Plain Text
Duration : 22 min 57 s
Bit rate : 105 b/s
Count of elements : 447
Stream size : 17.7 KiB (0%)
Language : English
Default : No
Forced : No

General
Format :
Format version : Version 4
File size : 50.1 MiB
Duration : 23 min 6 s
Overall bit rate : 303 kb/s
Writing application : v41.0.0 ('Smarra') 64-bit
Writing library : libebml v1.3.9 + v1.5.2

Video
ID : 1
Format : HEVC
Format/Info : High Efficiency Video Coding
Format profile : Format [email protected]@Main
Codec ID : V_MPEGH/ISO/HEVC
Duration : 23 min 6 s
Bit rate : 245 kb/s
Width : 638 pixels
Height : 480 pixels
Display aspect ratio : 4:3
Frame rate mode : Constant
Frame rate : 23.976 (24000/1001) FPS
Color space : YUV
Chroma subsampling : 4:2:0
Bit depth : 12 bits
Bits/(Pixel*Frame) : 0.033
Stream size : 40.4 MiB (81%)
Writing library : x265 3.2.1+1-b5c86a64bbbe:[Windows][GCC 9.2.0][64 bit] 12bit
Language : English
Default : Yes
Forced : No
Color range : Limited
Color primaries : BT.709
Transfer characteristics : BT.709
Matrix coefficients : BT.709

Audio #1
ID : 2
Format : LC SBR PS
Format/Info : Advanced Audio Codec Low Complexity with Spectral Band Replication and Parametric Stereo
Commercial name : HE-AACv2
Format settings : Implicit / Explicit
Codec ID : A_AAC-2
Duration : 23 min 6 s
Bit rate : 28.0 kb/s
Channel(s) : 1 channel
Channel(s)_Original : 2 channels
ChannelLayout_Original : C
Sampling rate : 48.0 kHz
Frame rate : 23.438 FPS (2048 SPF)
Compression mode : Lossy
Delay relative to video : 43 ms
Stream size : 4.63 MiB (9%)
Language : Ukrainian
Default : Yes
Forced : No

Audio #2
ID : 3
Format : LC SBR PS
Format/Info : Advanced Audio Codec Low Complexity with Spectral Band Replication and Parametric Stereo
Commercial name : HE-AACv2
Format settings : Implicit / Explicit
Codec ID : A_AAC-2
Duration : 23 min 6 s
Bit rate : 28.0 kb/s
Channel(s) : 1 channel
Channel(s)_Original : 2 channels
ChannelLayout_Original : C
Sampling rate : 48.0 kHz
Frame rate : 23.438 FPS (2048 SPF)
Compression mode : Lossy
Delay relative to video : 43 ms
Stream size : 4.63 MiB (9%)
Language : English
Default : No
Forced : No

Text
ID : 4
Format : UTF-8
Muxing mode : zlib
Codec ID : S_TEXT/UTF8
Codec ID/Info : UTF-8 Plain Text
Duration : 22 min 41 s
Bit rate : 96 b/s
Count of elements : 399
Stream size : 16.0 KiB (0%)
Language : English
Default : No
Forced : No

General
Format :
Format version : Version 4
File size : 50.2 MiB
Duration : 23 min 11 s
Overall bit rate : 303 kb/s
Writing application : v41.0.0 ('Smarra') 64-bit
Writing library : libebml v1.3.9 + v1.5.2

Video
ID : 1
Format : HEVC
Format/Info : High Efficiency Video Coding
Format profile : Format [email protected]@Main
Codec ID : V_MPEGH/ISO/HEVC
Duration : 23 min 11 s
Bit rate : 245 kb/s
Width : 636 pixels
Height : 480 pixels
Display aspect ratio : 4:3
Frame rate mode : Constant
Frame rate : 23.976 (24000/1001) FPS
Color space : YUV
Chroma subsampling : 4:2:0
Bit depth : 12 bits
Bits/(Pixel*Frame) : 0.033
Stream size : 40.6 MiB (81%)
Writing library : x265 3.2.1+1-b5c86a64bbbe:[Windows][GCC 9.2.0][64 bit] 12bit
Language : English
Default : Yes
Forced : No
Color range : Limited
Color primaries : BT.709
Transfer characteristics : BT.709
Matrix coefficients : BT.709

Audio #1
ID : 2
Format : LC SBR PS
Format/Info : Advanced Audio Codec Low Complexity with Spectral Band Replication and Parametric Stereo
Commercial name : HE-AACv2
Format settings : Implicit / Explicit
Codec ID : A_AAC-2
Duration : 23 min 10 s
Bit rate : 28.0 kb/s
Channel(s) : 1 channel
Channel(s)_Original : 2 channels
ChannelLayout_Original : C
Sampling rate : 48.0 kHz
Frame rate : 23.438 FPS (2048 SPF)
Compression mode : Lossy
Delay relative to video : 43 ms
Stream size : 4.64 MiB (9%)
Language : Ukrainian
Default : Yes
Forced : No

Audio #2
ID : 3
Format : LC SBR PS
Format/Info : Advanced Audio Codec Low Complexity with Spectral Band Replication and Parametric Stereo
Commercial name : HE-AACv2
Format settings : Implicit / Explicit
Codec ID : A_AAC-2
Duration : 23 min 10 s
Bit rate : 28.0 kb/s
Channel(s) : 1 channel
Channel(s)_Original : 2 channels
ChannelLayout_Original : C
Sampling rate : 48.0 kHz
Frame rate : 23.438 FPS (2048 SPF)
Compression mode : Lossy
Delay relative to video : 43 ms
Stream size : 4.64 MiB (9%)
Language : English
Default : No
Forced : No

Text
ID : 4
Format : UTF-8
Muxing mode : zlib
Codec ID : S_TEXT/UTF8
Codec ID/Info : UTF-8 Plain Text
Duration : 22 min 58 s
Bit rate : 83 b/s
Count of elements : 333
Stream size : 14.1 KiB (0%)
Language : English
Default : No
Forced : No

General
Format :
Format version : Version 4
File size : 48.6 MiB
Duration : 22 min 24 s
Overall bit rate : 303 kb/s
Writing application : v41.0.0 ('Smarra') 64-bit
Writing library : libebml v1.3.9 + v1.5.2

Video
ID : 1
Format : HEVC
Format/Info : High Efficiency Video Coding
Format profile : Format [email protected]@Main
Codec ID : V_MPEGH/ISO/HEVC
Duration : 22 min 24 s
Bit rate : 245 kb/s
Width : 636 pixels
Height : 480 pixels
Display aspect ratio : 4:3
Frame rate mode : Constant
Frame rate : 23.976 (24000/1001) FPS
Color space : YUV
Chroma subsampling : 4:2:0
Bit depth : 12 bits
Bits/(Pixel*Frame) : 0.033
Stream size : 39.2 MiB (81%)
Writing library : x265 3.2.1+1-b5c86a64bbbe:[Windows][GCC 9.2.0][64 bit] 12bit
Language : English
Default : Yes
Forced : No
Color range : Limited
Color primaries : BT.709
Transfer characteristics : BT.709
Matrix coefficients : BT.709

Audio #1
ID : 2
Format : LC SBR PS
Format/Info : Advanced Audio Codec Low Complexity with Spectral Band Replication and Parametric Stereo
Commercial name : HE-AACv2
Format settings : Implicit / Explicit
Codec ID : A_AAC-2
Duration : 22 min 24 s
Bit rate : 28.0 kb/s
Channel(s) : 1 channel
Channel(s)_Original : 2 channels
ChannelLayout_Original : C
Sampling rate : 48.0 kHz
Frame rate : 23.438 FPS (2048 SPF)
Compression mode : Lossy
Delay relative to video : 43 ms
Stream size : 4.49 MiB (9%)
Language : Ukrainian
Default : Yes
Forced : No

Audio #2
ID : 3
Format : LC SBR PS
Format/Info : Advanced Audio Codec Low Complexity with Spectral Band Replication and Parametric Stereo
Commercial name : HE-AACv2
Format settings : Implicit / Explicit
Codec ID : A_AAC-2
Duration : 22 min 24 s
Bit rate : 28.0 kb/s
Channel(s) : 1 channel
Channel(s)_Original : 2 channels
ChannelLayout_Original : C
Sampling rate : 48.0 kHz
Frame rate : 23.438 FPS (2048 SPF)
Compression mode : Lossy
Delay relative to video : 43 ms
Stream size : 4.49 MiB (9%)
Language : English
Default : No
Forced : No

Text
ID : 4
Format : UTF-8
Muxing mode : zlib
Codec ID : S_TEXT/UTF8
Codec ID/Info : UTF-8 Plain Text
Duration : 20 min 59 s
Bit rate : 105 b/s
Count of elements : 369
Stream size : 16.1 KiB (0%)
Language : English
Default : No
Forced : No

General
Format :
Format version : Version 4
File size : 49.2 MiB
Duration : 22 min 41 s
Overall bit rate : 303 kb/s
Writing application : v41.0.0 ('Smarra') 64-bit
Writing library : libebml v1.3.9 + v1.5.2

Video
ID : 1
Format : HEVC
Format/Info : High Efficiency Video Coding
Format profile : Format [email protected]@Main
Codec ID : V_MPEGH/ISO/HEVC
Duration : 22 min 41 s
Bit rate : 245 kb/s
Width : 632 pixels
Height : 480 pixels
Display aspect ratio : 4:3
Frame rate mode : Constant
Frame rate : 23.976 (24000/1001) FPS
Color space : YUV
Chroma subsampling : 4:2:0
Bit depth : 12 bits
Bits/(Pixel*Frame) : 0.034
Stream size : 39.7 MiB (81%)
Writing library : x265 3.2.1+1-b5c86a64bbbe:[Windows][GCC 9.2.0][64 bit] 12bit
Language : English
Default : Yes
Forced : No
Color range : Limited
Color primaries : BT.709
Transfer characteristics : BT.709
Matrix coefficients : BT.709

Audio #1
ID : 2
Format : LC SBR PS
Format/Info : Advanced Audio Codec Low Complexity with Spectral Band Replication and Parametric Stereo
Commercial name : HE-AACv2
Format settings : Implicit / Explicit
Codec ID : A_AAC-2
Duration : 22 min 41 s
Bit rate : 28.0 kb/s
Channel(s) : 1 channel
Channel(s)_Original : 2 channels
ChannelLayout_Original : C
Sampling rate : 48.0 kHz
Frame rate : 23.438 FPS (2048 SPF)
Compression mode : Lossy
Delay relative to video : 43 ms
Stream size : 4.55 MiB (9%)
Language : Ukrainian
Default : Yes
Forced : No

Audio #2
ID : 3
Format : LC SBR PS
Format/Info : Advanced Audio Codec Low Complexity with Spectral Band Replication and Parametric Stereo
Commercial name : HE-AACv2
Format settings : Implicit / Explicit
Codec ID : A_AAC-2
Duration : 22 min 41 s
Bit rate : 28.0 kb/s
Channel(s) : 1 channel
Channel(s)_Original : 2 channels
ChannelLayout_Original : C
Sampling rate : 48.0 kHz
Frame rate : 23.438 FPS (2048 SPF)
Compression mode : Lossy
Delay relative to video : 43 ms
Stream size : 4.55 MiB (9%)
Language : English
Default : No
Forced : No

Text
ID : 4
Format : UTF-8
Muxing mode : zlib
Codec ID : S_TEXT/UTF8
Codec ID/Info : UTF-8 Plain Text
Duration : 22 min 29 s
Bit rate : 92 b/s
Count of elements : 407
Stream size : 15.3 KiB (0%)
Language : English
Default : No
Forced : No

General
Format :
Format version : Version 4
File size : 50.1 MiB
Duration : 23 min 8 s
Overall bit rate : 303 kb/s
Writing application : v41.0.0 ('Smarra') 64-bit
Writing library : libebml v1.3.9 + v1.5.2

Video
ID : 1
Format : HEVC
Format/Info : High Efficiency Video Coding
Format profile : Format [email protected]@Main
Codec ID : V_MPEGH/ISO/HEVC
Duration : 23 min 8 s
Bit rate : 245 kb/s
Width : 630 pixels
Height : 480 pixels
Display aspect ratio : 4:3
Frame rate mode : Constant
Frame rate : 23.976 (24000/1001) FPS
Color space : YUV
Chroma subsampling : 4:2:0
Bit depth : 12 bits
Bits/(Pixel*Frame) : 0.034
Stream size : 40.5 MiB (81%)
Writing library : x265 3.2.1+1-b5c86a64bbbe:[Windows][GCC 9.2.0][64 bit] 12bit
Language : English
Default : Yes
Forced : No
Color range : Limited
Color primaries : BT.709
Transfer characteristics : BT.709
Matrix coefficients : BT.709

Audio #1
ID : 2
Format : LC SBR PS
Format/Info : Advanced Audio Codec Low Complexity with Spectral Band Replication and Parametric Stereo
Commercial name : HE-AACv2
Format settings : Implicit / Explicit
Codec ID : A_AAC-2
Duration : 23 min 8 s
Bit rate : 28.0 kb/s
Channel(s) : 1 channel
Channel(s)_Original : 2 channels
ChannelLayout_Original : C
Sampling rate : 48.0 kHz
Frame rate : 23.438 FPS (2048 SPF)
Compression mode : Lossy
Delay relative to video : 43 ms
Stream size : 4.64 MiB (9%)
Language : Ukrainian
Default : Yes
Forced : No

Audio #2
ID : 3
Format : LC SBR PS
Format/Info : Advanced Audio Codec Low Complexity with Spectral Band Replication and Parametric Stereo
Commercial name : HE-AACv2
Format settings : Implicit / Explicit
Codec ID : A_AAC-2
Duration : 23 min 8 s
Bit rate : 28.0 kb/s
Channel(s) : 1 channel
Channel(s)_Original : 2 channels
ChannelLayout_Original : C
Sampling rate : 48.0 kHz
Frame rate : 23.438 FPS (2048 SPF)
Compression mode : Lossy
Delay relative to video : 43 ms
Stream size : 4.64 MiB (9%)
Language : English
Default : No
Forced : No

Text
ID : 4
Format : UTF-8
Muxing mode : zlib
Codec ID : S_TEXT/UTF8
Codec ID/Info : UTF-8 Plain Text
Duration : 21 min 34 s
Bit rate : 88 b/s
Count of elements : 334
Stream size : 14.0 KiB (0%)
Language : English
Default : No
Forced : No

General
Format :
Format version : Version 4
File size : 50.1 MiB
Duration : 23 min 6 s
Overall bit rate : 303 kb/s
Writing application : v41.0.0 ('Smarra') 64-bit
Writing library : libebml v1.3.9 + v1.5.2

Video
ID : 1
Format : HEVC
Format/Info : High Efficiency Video Coding
Format profile : Format [email protected]@Main
Codec ID : V_MPEGH/ISO/HEVC
Duration : 23 min 6 s
Bit rate : 245 kb/s
Width : 630 pixels
Height : 480 pixels
Display aspect ratio : 4:3
Frame rate mode : Constant
Frame rate : 23.976 (24000/1001) FPS
Color space : YUV
Chroma subsampling : 4:2:0
Bit depth : 12 bits
Bits/(Pixel*Frame) : 0.034
Stream size : 40.5 MiB (81%)
Writing library : x265 3.2.1+1-b5c86a64bbbe:[Windows][GCC 9.2.0][64 bit] 12bit
Language : English
Default : Yes
Forced : No
Color range : Limited
Color primaries : BT.709
Transfer characteristics : BT.709
Matrix coefficients : BT.709

Audio #1
ID : 2
Format : LC SBR PS
Format/Info : Advanced Audio Codec Low Complexity with Spectral Band Replication and Parametric Stereo
Commercial name : HE-AACv2
Format settings : Implicit / Explicit
Codec ID : A_AAC-2
Duration : 23 min 6 s
Bit rate : 28.0 kb/s
Channel(s) : 1 channel
Channel(s)_Original : 2 channels
ChannelLayout_Original : C
Sampling rate : 48.0 kHz
Frame rate : 23.438 FPS (2048 SPF)
Compression mode : Lossy
Delay relative to video : 43 ms
Stream size : 4.63 MiB (9%)
Language : Ukrainian
Default : Yes
Forced : No

Audio #2
ID : 3
Format : LC SBR PS
Format/Info : Advanced Audio Codec Low Complexity with Spectral Band Replication and Parametric Stereo
Commercial name : HE-AACv2
Format settings : Implicit / Explicit
Codec ID : A_AAC-2
Duration : 23 min 6 s
Bit rate : 28.0 kb/s
Channel(s) : 1 channel
Channel(s)_Original : 2 channels
ChannelLayout_Original : C
Sampling rate : 48.0 kHz
Frame rate : 23.438 FPS (2048 SPF)
Compression mode : Lossy
Delay relative to video : 43 ms
Stream size : 4.63 MiB (9%)
Language : English
Default : No
Forced : No

Text
ID : 4
Format : UTF-8
Muxing mode : zlib
Codec ID : S_TEXT/UTF8
Codec ID/Info : UTF-8 Plain Text
Duration : 22 min 41 s
Bit rate : 85 b/s
Count of elements : 362
Stream size : 14.3 KiB (0%)
Language : English
Default : No
Forced : No

General
Format :
Format version : Version 4
File size : 49.3 MiB
Duration : 22 min 45 s
Overall bit rate : 303 kb/s
Writing application : v41.0.0 ('Smarra') 64-bit
Writing library : libebml v1.3.9 + v1.5.2

Video
ID : 1
Format : HEVC
Format/Info : High Efficiency Video Coding
Format profile : Format [email protected]@Main
Codec ID : V_MPEGH/ISO/HEVC
Duration : 22 min 45 s
Bit rate : 245 kb/s
Width : 630 pixels
Height : 480 pixels
Display aspect ratio : 4:3
Frame rate mode : Constant
Frame rate : 23.976 (24000/1001) FPS
Color space : YUV
Chroma subsampling : 4:2:0
Bit depth : 12 bits
Bits/(Pixel*Frame) : 0.034
Stream size : 39.8 MiB (81%)
Writing library : x265 3.2.1+1-b5c86a64bbbe:[Windows][GCC 9.2.0][64 bit] 12bit
Language : English
Default : Yes
Forced : No
Color range : Limited
Color primaries : BT.709
Transfer characteristics : BT.709
Matrix coefficients : BT.709

Audio #1
ID : 2
Format : LC SBR PS
Format/Info : Advanced Audio Codec Low Complexity with Spectral Band Replication and Parametric Stereo
Commercial name : HE-AACv2
Format settings : Implicit / Explicit
Codec ID : A_AAC-2
Duration : 22 min 45 s
Bit rate : 28.0 kb/s
Channel(s) : 1 channel
Channel(s)_Original : 2 channels
ChannelLayout_Original : C
Sampling rate : 48.0 kHz
Frame rate : 23.438 FPS (2048 SPF)
Compression mode : Lossy
Delay relative to video : 43 ms
Stream size : 4.56 MiB (9%)
Language : Ukrainian
Default : Yes
Forced : No

Audio #2
ID : 3
Format : LC SBR PS
Format/Info : Advanced Audio Codec Low Complexity with Spectral Band Replication and Parametric Stereo
Commercial name : HE-AACv2
Format settings : Implicit / Explicit
Codec ID : A_AAC-2
Duration : 22 min 45 s
Bit rate : 28.0 kb/s
Channel(s) : 1 channel
Channel(s)_Original : 2 channels
ChannelLayout_Original : C
Sampling rate : 48.0 kHz
Frame rate : 23.438 FPS (2048 SPF)
Compression mode : Lossy
Delay relative to video : 43 ms
Stream size : 4.56 MiB (9%)
Language : English
Default : No
Forced : No

Text
ID : 4
Format : UTF-8
Muxing mode : zlib
Codec ID : S_TEXT/UTF8
Codec ID/Info : UTF-8 Plain Text
Duration : 22 min 18 s
Bit rate : 96 b/s
Count of elements : 390
Stream size : 15.7 KiB (0%)
Language : English
Default : No
Forced : No

General
Format :
Format version : Version 4
File size : 50.2 MiB
Duration : 23 min 9 s
Overall bit rate : 303 kb/s
Writing application : v41.0.0 ('Smarra') 64-bit
Writing library : libebml v1.3.9 + v1.5.2

Video
ID : 1
Format : HEVC
Format/Info : High Efficiency Video Coding
Format profile : Format [email protected]@Main
Codec ID : V_MPEGH/ISO/HEVC
Duration : 23 min 9 s
Bit rate : 245 kb/s
Width : 630 pixels
Height : 480 pixels
Display aspect ratio : 4:3
Frame rate mode : Constant
Frame rate : 23.976 (24000/1001) FPS
Color space : YUV
Chroma subsampling : 4:2:0
Bit depth : 12 bits
Bits/(Pixel*Frame) : 0.034
Stream size : 40.6 MiB (81%)
Writing library : x265 3.2.1+1-b5c86a64bbbe:[Windows][GCC 9.2.0][64 bit] 12bit
Language : English
Default : Yes
Forced : No
Color range : Limited
Color primaries : BT.709
Transfer characteristics : BT.709
Matrix coefficients : BT.709

Audio #1
ID : 2
Format : LC SBR PS
Format/Info : Advanced Audio Codec Low Complexity with Spectral Band Replication and Parametric Stereo
Commercial name : HE-AACv2
Format settings : Implicit / Explicit
Codec ID : A_AAC-2
Duration : 23 min 9 s
Bit rate : 28.0 kb/s
Channel(s) : 1 channel
Channel(s)_Original : 2 channels
ChannelLayout_Original : C
Sampling rate : 48.0 kHz
Frame rate : 23.438 FPS (2048 SPF)
Compression mode : Lossy
Delay relative to video : 43 ms
Stream size : 4.64 MiB (9%)
Language : Ukrainian
Default : Yes
Forced : No

Audio #2
ID : 3
Format : LC SBR PS
Format/Info : Advanced Audio Codec Low Complexity with Spectral Band Replication and Parametric Stereo
Commercial name : HE-AACv2
Format settings : Implicit / Explicit
Codec ID : A_AAC-2
Duration : 23 min 9 s
Bit rate : 28.0 kb/s
Channel(s) : 1 channel
Channel(s)_Original : 2 channels
ChannelLayout_Original : C
Sampling rate : 48.0 kHz
Frame rate : 23.438 FPS (2048 SPF)
Compression mode : Lossy
Delay relative to video : 43 ms
Stream size : 4.64 MiB (9%)
Language : English
Default : No
Forced : No

Text
ID : 4
Format : UTF-8
Muxing mode : zlib
Codec ID : S_TEXT/UTF8
Codec ID/Info : UTF-8 Plain Text
Duration : 22 min 58 s
Bit rate : 84 b/s
Count of elements : 384
Stream size : 14.3 KiB (0%)
Language : English
Default : No
Forced : No

General
Format :
Format version : Version 4
File size : 50.1 MiB
Duration : 23 min 6 s
Overall bit rate : 303 kb/s
Writing application : v41.0.0 ('Smarra') 64-bit
Writing library : libebml v1.3.9 + v1.5.2

Video
ID : 1
Format : HEVC
Format/Info : High Efficiency Video Coding
Format profile : Format [email protected]@Main
Codec ID : V_MPEGH/ISO/HEVC
Duration : 23 min 6 s
Bit rate : 245 kb/s
Width : 630 pixels
Height : 480 pixels
Display aspect ratio : 4:3
Frame rate mode : Constant
Frame rate : 23.976 (24000/1001) FPS
Color space : YUV
Chroma subsampling : 4:2:0
Bit depth : 12 bits
Bits/(Pixel*Frame) : 0.034
Stream size : 40.4 MiB (81%)
Writing library : x265 3.2.1+1-b5c86a64bbbe:[Windows][GCC 9.2.0][64 bit] 12bit
Language : English
Default : Yes
Forced : No
Color range : Limited
Color primaries : BT.709
Transfer characteristics : BT.709
Matrix coefficients : BT.709

Audio #1
ID : 2
Format : LC SBR PS
Format/Info : Advanced Audio Codec Low Complexity with Spectral Band Replication and Parametric Stereo
Commercial name : HE-AACv2
Format settings : Implicit / Explicit
Codec ID : A_AAC-2
Duration : 23 min 6 s
Bit rate : 28.0 kb/s
Channel(s) : 1 channel
Channel(s)_Original : 2 channels
ChannelLayout_Original : C
Sampling rate : 48.0 kHz
Frame rate : 23.438 FPS (2048 SPF)
Compression mode : Lossy
Delay relative to video : 43 ms
Stream size : 4.63 MiB (9%)
Language : Ukrainian
Default : Yes
Forced : No

Audio #2
ID : 3
Format : LC SBR PS
Format/Info : Advanced Audio Codec Low Complexity with Spectral Band Replication and Parametric Stereo
Commercial name : HE-AACv2
Format settings : Implicit / Explicit
Codec ID : A_AAC-2
Duration : 23 min 6 s
Bit rate : 28.0 kb/s
Channel(s) : 1 channel
Channel(s)_Original : 2 channels
ChannelLayout_Original : C
Sampling rate : 48.0 kHz
Frame rate : 23.438 FPS (2048 SPF)
Compression mode : Lossy
Delay relative to video : 43 ms
Stream size : 4.63 MiB (9%)
Language : English
Default : No
Forced : No

Text
ID : 4
Format : UTF-8
Muxing mode : zlib
Codec ID : S_TEXT/UTF8
Codec ID/Info : UTF-8 Plain Text
Duration : 21 min 52 s
Bit rate : 95 b/s
Count of elements : 407
Stream size : 15.4 KiB (0%)
Language : English
Default : No
Forced : No

General
Format :
Format version : Version 4
File size : 50.4 MiB
Duration : 23 min 13 s
Overall bit rate : 303 kb/s
Writing application : v41.0.0 ('Smarra') 64-bit
Writing library : libebml v1.3.9 + v1.5.2

Video
ID : 1
Format : HEVC
Format/Info : High Efficiency Video Coding
Format profile : Format [email protected]@Main
Codec ID : V_MPEGH/ISO/HEVC
Duration : 23 min 13 s
Bit rate : 245 kb/s
Width : 630 pixels
Height : 480 pixels
Display aspect ratio : 4:3
Frame rate mode : Constant
Frame rate : 23.976 (24000/1001) FPS
Color space : YUV
Chroma subsampling : 4:2:0
Bit depth : 12 bits
Bits/(Pixel*Frame) : 0.034
Stream size : 40.7 MiB (81%)
Writing library : x265 3.2.1+1-b5c86a64bbbe:[Windows][GCC 9.2.0][64 bit] 12bit
Language : English
Default : Yes
Forced : No
Color range : Limited
Color primaries : BT.709
Transfer characteristics : BT.709
Matrix coefficients : BT.709

Audio #1
ID : 2
Format : LC SBR PS
Format/Info : Advanced Audio Codec Low Complexity with Spectral Band Replication and Parametric Stereo
Commercial name : HE-AACv2
Format settings : Implicit / Explicit
Codec ID : A_AAC-2
Duration : 23 min 13 s
Bit rate : 28.0 kb/s
Channel(s) : 1 channel
Channel(s)_Original : 2 channels
ChannelLayout_Original : C
Sampling rate : 48.0 kHz
Frame rate : 23.438 FPS (2048 SPF)
Compression mode : Lossy
Delay relative to video : 43 ms
Stream size : 4.65 MiB (9%)
Language : Ukrainian
Default : Yes
Forced : No

Audio #2
ID : 3
Format : LC SBR PS
Format/Info : Advanced Audio Codec Low Complexity with Spectral Band Replication and Parametric Stereo
Commercial name : HE-AACv2
Format settings : Implicit / Explicit
Codec ID : A_AAC-2
Duration : 23 min 13 s
Bit rate : 28.0 kb/s
Channel(s) : 1 channel
Channel(s)_Original : 2 channels
ChannelLayout_Original : C
Sampling rate : 48.0 kHz
Frame rate : 23.438 FPS (2048 SPF)
Compression mode : Lossy
Delay relative to video : 43 ms
Stream size : 4.65 MiB (9%)
Language : English
Default : No
Forced : No

Text
ID : 4
Format : UTF-8
Muxing mode : zlib
Codec ID : S_TEXT/UTF8
Codec ID/Info : UTF-8 Plain Text
Duration : 22 min 46 s
Bit rate : 85 b/s
Count of elements : 355
Stream size : 14.3 KiB (0%)
Language : English
Default : No
Forced : No

General
Format :
Format version : Version 4
File size : 50.2 MiB
Duration : 23 min 9 s
Overall bit rate : 303 kb/s
Writing application : v41.0.0 ('Smarra') 64-bit
Writing library : libebml v1.3.9 + v1.5.2

Video
ID : 1
Format : HEVC
Format/Info : High Efficiency Video Coding
Format profile : Format [email protected]@Main
Codec ID : V_MPEGH/ISO/HEVC
Duration : 23 min 9 s
Bit rate : 245 kb/s
Width : 630 pixels
Height : 480 pixels
Display aspect ratio : 4:3
Frame rate mode : Constant
Frame rate : 23.976 (24000/1001) FPS
Color space : YUV
Chroma subsampling : 4:2:0
Bit depth : 12 bits
Bits/(Pixel*Frame) : 0.034
Stream size : 40.6 MiB (81%)
Writing library : x265 3.2.1+1-b5c86a64bbbe:[Windows][GCC 9.2.0][64 bit] 12bit
Language : English
Default : Yes
Forced : No
Color range : Limited
Color primaries : BT.709
Transfer characteristics : BT.709
Matrix coefficients : BT.709

Audio #1
ID : 2
Format : LC SBR PS
Format/Info : Advanced Audio Codec Low Complexity with Spectral Band Replication and Parametric Stereo
Commercial name : HE-AACv2
Format settings : Implicit / Explicit
Codec ID : A_AAC-2
Duration : 23 min 9 s
Bit rate : 28.0 kb/s
Channel(s) : 1 channel
Channel(s)_Original : 2 channels
ChannelLayout_Original : C
Sampling rate : 48.0 kHz
Frame rate : 23.438 FPS (2048 SPF)
Compression mode : Lossy
Delay relative to video : 43 ms
Stream size : 4.64 MiB (9%)
Language : Ukrainian
Default : Yes
Forced : No

Audio #2
ID : 3
Format : LC SBR PS
Format/Info : Advanced Audio Codec Low Complexity with Spectral Band Replication and Parametric Stereo
Commercial name : HE-AACv2
Format settings : Implicit / Explicit
Codec ID : A_AAC-2
Duration : 23 min 9 s
Bit rate : 28.0 kb/s
Channel(s) : 1 channel
Channel(s)_Original : 2 channels
ChannelLayout_Original : C
Sampling rate : 48.0 kHz
Frame rate : 23.438 FPS (2048 SPF)
Compression mode : Lossy
Delay relative to video : 43 ms
Stream size : 4.64 MiB (9%)
Language : English
Default : No
Forced : No

Text
ID : 4
Format : UTF-8
Muxing mode : zlib
Codec ID : S_TEXT/UTF8
Codec ID/Info : UTF-8 Plain Text
Duration : 22 min 59 s
Bit rate : 103 b/s
Count of elements : 379
Stream size : 17.4 KiB (0%)
Language : English
Default : No
Forced : No

General
Format :
Format version : Version 4
File size : 49.7 MiB
Duration : 22 min 55 s
Overall bit rate : 303 kb/s
Writing application : v41.0.0 ('Smarra') 64-bit
Writing library : libebml v1.3.9 + v1.5.2

Video
ID : 1
Format : HEVC
Format/Info : High Efficiency Video Coding
Format profile : Format [email protected]@Main
Codec ID : V_MPEGH/ISO/HEVC
Duration : 22 min 55 s
Bit rate : 245 kb/s
Width : 636 pixels
Height : 480 pixels
Display aspect ratio : 4:3
Frame rate mode : Constant
Frame rate : 23.976 (24000/1001) FPS
Color space : YUV
Chroma subsampling : 4:2:0
Bit depth : 12 bits
Bits/(Pixel*Frame) : 0.033
Stream size : 40.1 MiB (81%)
Writing library : x265 3.2.1+1-b5c86a64bbbe:[Windows][GCC 9.2.0][64 bit] 12bit
Language : English
Default : Yes
Forced : No
Color range : Limited
Color primaries : BT.709
Transfer characteristics : BT.709
Matrix coefficients : BT.709

Audio #1
ID : 2
Format : LC SBR PS
Format/Info : Advanced Audio Codec Low Complexity with Spectral Band Replication and Parametric Stereo
Commercial name : HE-AACv2
Format settings : Implicit / Explicit
Codec ID : A_AAC-2
Duration : 22 min 55 s
Bit rate : 28.0 kb/s
Channel(s) : 1 channel
Channel(s)_Original : 2 channels
ChannelLayout_Original : C
Sampling rate : 48.0 kHz
Frame rate : 23.438 FPS (2048 SPF)
Compression mode : Lossy
Delay relative to video : 43 ms
Stream size : 4.59 MiB (9%)
Language : Ukrainian
Default : Yes
Forced : No

Audio #2
ID : 3
Format : LC SBR PS
Format/Info : Advanced Audio Codec Low Complexity with Spectral Band Replication and Parametric Stereo
Commercial name : HE-AACv2
Format settings : Implicit / Explicit
Codec ID : A_AAC-2
Duration : 22 min 55 s
Bit rate : 28.0 kb/s
Channel(s) : 1 channel
Channel(s)_Original : 2 channels
ChannelLayout_Original : C
Sampling rate : 48.0 kHz
Frame rate : 23.438 FPS (2048 SPF)
Compression mode : Lossy
Delay relative to video : 43 ms
Stream size : 4.59 MiB (9%)
Language : English
Default : No
Forced : No

Text
ID : 4
Format : UTF-8
Muxing mode : zlib
Codec ID : S_TEXT/UTF8
Codec ID/Info : UTF-8 Plain Text
Duration : 22 min 43 s
Bit rate : 91 b/s
Count of elements : 378
Stream size : 15.3 KiB (0%)
Language : English
Default : No
Forced : No
Подяка: За запис, оцифровування та синхронізацію п. SerGoLeOne


 Трекер:    Зареєстрований   

Завантажити / скачати торрент



відео для новачків



 Зареєстрований:   2020-02-02 04:17
 Розмір:   649 MB 
 Оцінка:   9.3/10 (Голосів: 3)
   
kino. 
Модератор відео


З нами з: 27.06.10
Востаннє: 25.02.20
Повідомлень: 2892

2020-02-02 15:46  
kittkatt, реліз створюється через Майстер https://toloka.to/release.php
11FrYkT 
Модератор відео


З нами з: 20.02.11
Востаннє: 25.02.20
Повідомлень: 6576

2020-02-23 12:15  
kittkatt , оформіть по шаблону

Додайте посилання імдб та попередження про можливість не відворення даного відео (див. інші роздачі з Н.265)

Ваш часовий пояс: GMT + 2 Години

Нова тема   Відповісти