Щонеділі / Any Given Sunday (1999) 1080p Ukr/Eng | Sub Eng

Нові коментарі

Нова тема   Відповісти
Автор Повідомлення
Anonymous 







2020-02-01 14:57  
Щонеділі / Any Given Sunday (1999) 1080p Ukr/Eng | Sub Eng

Щонеділі / Any Given Sunday (1999) 1080p Ukr/Eng | Sub Eng


Жанр: спорт, драма
Країна: США



Кінокомпанія: Warner Bros. Ixtlan,Donners' Company
Режисер: Олівер Стоун
Актори: Аль Пачіно , Кемерон Діаз, Денніс Куейд, Джеймс Вудс, Джеймі Фокс, ЛЛ Кул Джей, Метью Модайн, Джим Браун, Лоуренс Тейлор, Біл Белламі

Сюжет:
Чотири роки тому «Акули Майамі» перебували на вершині чемпіонату. Однак зараз команда перебуває в середині таблиці і вже програла 3 рази поспіль. Головний тренер команди Тоні Діамато стикається з проблемами як в команді, так і поза нею.


Тривалість: 02:37:11
Якість: 1080p
Відео:
кодек:
розмір кадру: 1920х800
бітрейт: 7 459 кб/с

Аудіо # 1:
мова: українська
переклад: багатоголосий закадровий
кодек: 5.1
бітрейт: 384 кб/с

Аудіо # 2:
мова: англійська
переклад: оригінал
кодек: 5.1
бітрейт: 640 кб/с

Субтитри:
мова: англійська
тип: програмні (м'які)
формат: *.srt
Info
General
Unique ID : 203148959783678174364028755116521001585 (0x98D51104F45D4BF8AC30082F5AA59271)
Complete name : H:\Toloka\2020\Any Given Sunday (1999) 1080p.
Format :
Format version : Version 4
File size : 9.50 GiB
Duration : 2 h 37 min
Overall bit rate : 8 655 kb/s
Encoded date : UTC 2020-02-01 12:49:22
Writing application : v6.1.0 ('Old Devil') built on Mar 4 2013 09:10:42
Writing library : libebml v1.3.0 + v1.4.0

Video
ID : 1
Format : AVC
Format/Info : Advanced Video Codec
Format profile : [email protected]
Format settings : CABAC / 4 Ref Frames
Format settings, CABAC : Yes
Format settings, RefFrames : 4 frames
Codec ID : V_MPEG4/ISO/AVC
Duration : 2 h 37 min
Bit rate : 7 459 kb/s
Width : 1 920 pixels
Height : 800 pixels
Display aspect ratio : 2.40:1
Frame rate mode : Constant
Frame rate : 23.976 FPS
Color space : YUV
Chroma subsampling : 4:2:0
Bit depth : 8 bits
Scan type : Progressive
Bits/(Pixel*Frame) : 0.203
Stream size : 8.19 GiB (86%)
Writing library : core 67 r1162M f7bfcfa
Encoding settings : cabac=1 / ref=4 / deblock=1:-2:-2 / analyse=0x3:0x113 / me=umh / subme=9 / psy_rd=1.0:0.0 / mixed_ref=1 / me_range=24 / chroma_me=1 / trellis=2 / 8x8dct=1 / cqm=0 / deadzone=21,11 / chroma_qp_offset=-4 / threads=3 / nr=0 / decimate=1 / mbaff=0 / bframes=6 / b_pyramid=1 / b_adapt=2 / b_bias=0 / direct=3 / wpredb=1 / keyint=250 / keyint_min=25 / scenecut=40 / rc=crf / crf=22.7 / qcomp=0.60 / qpmin=10 / qpmax=51 / qpstep=4 / vbv_maxrate=38000 / vbv_bufsize=30000 / ip_ratio=1.40 / pb_ratio=1.30 / aq=1:1.00
Language : English
Default : Yes
Forced : No

Audio #1
ID : 2
Format : AC-3
Format/Info : Audio Coding 3
Commercial name : Dolby Digital
Codec ID : A_AC3
Duration : 2 h 37 min
Bit rate mode : Constant
Bit rate : 384 kb/s
Channel(s) : 6 channels
Channel layout : L R C LFE Ls Rs
Sampling rate : 48.0 kHz
Frame rate : 31.250 FPS (1536 SPF)
Bit depth : 16 bits
Compression mode : Lossy
Stream size : 432 MiB (4%)
Title : UKR (Inter)
Language : Ukrainian
Service kind : Complete Main
Default : Yes
Forced : Yes

Audio #2
ID : 3
Format : AC-3
Format/Info : Audio Coding 3
Commercial name : Dolby Digital
Codec ID : A_AC3
Duration : 2 h 37 min
Bit rate mode : Constant
Bit rate : 640 kb/s
Channel(s) : 6 channels
Channel layout : L R C LFE Ls Rs
Sampling rate : 48.0 kHz
Frame rate : 31.250 FPS (1536 SPF)
Bit depth : 16 bits
Compression mode : Lossy
Stream size : 720 MiB (7%)
Title : ENG
Language : English
Service kind : Complete Main
Default : No
Forced : No

Text
ID : 4
Format : UTF-8
Codec ID : S_TEXT/UTF8
Codec ID/Info : UTF-8 Plain Text
Title : English
Language : English
Default : No
Forced : No
Скріншоти







За доріжку подяка п.: Romario_O, drakon87
Особиста подяка пану denixx за надану матеріальну допомогу на підтримку цього і майбутніх релізів.
Джерело:


Срібний реліз (на рейтинг впливає 50% завантаженого)
 Трекер:    Зареєстрований   

Завантажити / скачати фільм українською



відео для новачків



 Зареєстрований:   2020-02-01 14:57
 Розмір:   9.5 GB 
 Оцінка фільму:   8.9/10 (Голосів: 7)
   
Інші релізи
+380954897458 
VIP


З нами з: 02.06.17
Востаннє: 28.02.21
Повідомлень: 1105

2020-02-03 22:28  
Останній видатний фільм найкращого режисера 90-х. Останній відблиск величі.
Ваш часовий пояс: GMT + 2 Години

Нова тема   Відповісти