Джокер / Joker (2019) Blu-Ray 1080р Ukr/Eng/Multi | Sub Ukr/Eng/Multi [Custom]

Нові коментарі

Нова тема   Відповісти
Автор Повідомлення
kryk-v.ya. 
Попереджень: 1
Попереджень: 1 


З нами з: 14.02.14
Востаннє: 28.09.20
Повідомлень: 2250

2020-02-01 13:36  
Джокер / Joker (2019) Blu-Ray 1080р Ukr/Eng/Multi | Sub Ukr/Eng/Multi [Custom]


Жанр: драма, кримінальний, трилер
Країна: США, Канада



Кінокомпанія: BRON Studios, Creative Wealth Media Finance, DC Comics
Режисер: Тодд Філліпс
Актори: Хоакін Фенікс, Зазі Бітц, Роберт Де Ніро, Марк Мерон, Френсіс Конрой, Ші Вігхем, Бретт Каллен, Дуглас Ходж

Сюжет:
Відчуваючи самотність, Артур Флек шукає моральну підтримку. Проте, гуляючи покинутими вулицями Ґотему та пересуваючись у розмальованому графіті громадському транспорті ворожого міста, Артур носить дві маски. Першу він використовує для повсякденної роботи клоуном. Іншої ж просто не може позбутись. Це подоба особистості, яку він проектує в марній спробі відчути себе частиною навколишнього світу, а не самотньою людиною, яку весь час шматує життя. У Артура немає батька – лише слабка матір. Вона є для нього одночасно й найкращою подругою. Мати дала йому прізвисько Щасливчик. Це прізвисько викликає в Артура посмішку, яка приховує сильний душевний біль. Проте коли на вулицях знущаються підлітки, в метро насміхаються над костюмом клоуна, а колеги злісно дражнять, Артуру не залишається іншого вибору, крім як ще більше відмежувати себе від суспільства.


Тривалість: 02:01:49
Якість: Blu-ray 1080p
Відео:
кодек:
розмір кадру: 1920 х 1080
бітрейт: 20072 кб/с

Аудіо # 1:
мова: англійська
переклад: оригінал
кодек: TrueHD + Atmos 7.1
бітрейт: 4459 кб/с

Аудіо # 2-3:
мова: англійська
переклад: оригінал
кодек: 5.1
бітрейт: 448 кб/с

Аудіо # 4-7, 9:
мова: іспанська, чеська, угорська, польська, тайська
переклад: оригінал
кодек: 5.1
бітрейт: 448 кб/с

Аудіо # 8:
мова: українська
переклад: професійний дубльований | студія Postmodern
кодек: 5.1
бітрейт: 384 кб/с

Субтитри # 19, 27 (full, forced):
мова: українська
тип: пререндерні
формат: *.pgs

Субтитри # 1-28:
мова: англійська, іспанська, китайська, корейська, арабська, болгарська, хорватська, чеська, естонська, грецька, угорська, латвійська, литовська, польська, португальська, румунська, словенська, тайська, турецька.
тип: пререндерні
формат: *.pgs

Додаткові епізоди: (~ 25 хв, HD, перекладено субтитрами)
* Becoming Joker.
* Joker‌‌​​‌​​‌‍‌‌​​‌‌​​‍‌‌​​‌‌​‌‍‌‌​​‌​‌​‍‌‌​​‌​‌​: Vision & Fury.
* Please, Welcome... Joker!
* Joker: A Chronicle of Chaos.
Робота над диском
Диск перебрав з оригінального, додано українські повні та форсовані субтитри та перекладено додаткові сцени субтитрами.
Використані програми: BDInfo, BDFix Pro, UsEac3To, Photoshop, SubtitleEdit.
BDInfo
Disc Title: JOKER_2019_BD_HURTOM
Disc Size: 34 508 821 978 bytes
Protection: AACS
BD-Java: Yes
BDInfo: 0.7.3.3

Notes:

BDINFO HOME:
Cinema Squid
http://www.cinemasquid.com/blu-ray/tools/bdinfo

INCLUDES FORUMS REPORT FOR:
AVS Forum Blu-ray Audio and Video Specifications Thread
http://www.avsforum.com/avs-vb/showthread.php?t=1155731

********************
PLAYLIST: 00800.MPLS
********************

<--- BEGIN FORUMS PASTE --->
Код:

                                                                                                                Total   Video
Title                                                           Codec   Length  Movie Size      Disc Size       Bitrate Bitrate Main Audio Track                          Secondary Audio Track
-----                                                           ------  ------- --------------  --------------  ------- ------- ------------------                        ---------------------
00800.MPLS                                                      AVC     2:01:49 28 551 622 656  34 508 821 978  31,25   20,07   Dolby TrueHD 7.1 3819Kbps (48kHz/24-bit)  DD 5.1 448Kbps


Код:


DISC INFO:

Disc Title:     JOKER_2019_BD_HURTOM
Disc Size:      34 508 821 978 bytes
Protection:     AACS
BD-Java:        Yes
BDInfo:         0.7.3.3

PLAYLIST REPORT:

Name:                   00800.MPLS
Length:                 2:01:49.093 (h:m:s.ms)
Size:                   28 551 622 656 bytes
Total Bitrate:          31,25 Mbps

VIDEO:

Codec                   Bitrate             Description
-----                   -------             -----------
MPEG-4 AVC Video        20072 kbps          1080p / 23,976 fps / 16:9 / High Profile 4.1

AUDIO:

Codec                           Language        Bitrate         Description
-----                           --------        -------         -----------
Dolby TrueHD + Atmos            English         3819 kbps       7.1 / 48 kHz / 3819 kbps / 24-bit ( Embedded: 5.1-EX / 48 kHz / 640 kbps / DN -4dB)
Dolby Digital Audio             English         448 kbps        5.1 / 48 kHz / 448 kbps / DN -4dB
Dolby Digital Audio             English         448 kbps        5.1 / 48 kHz / 448 kbps / DN -4dB
Dolby Digital Audio             Spanish         448 kbps        5.1 / 48 kHz / 448 kbps / DN -4dB
Dolby Digital Audio             Czech           448 kbps        5.1 / 48 kHz / 448 kbps / DN -4dB
Dolby Digital Audio             Hungarian       448 kbps        5.1 / 48 kHz / 448 kbps / DN -4dB
Dolby Digital Audio             Polish          448 kbps        5.1 / 48 kHz / 448 kbps / DN -4dB
Dolby Digital Audio             Ukrainian       384 kbps        5.1 / 48 kHz / 384 kbps / DN -4dB
Dolby Digital Audio             Thai            448 kbps        5.1 / 48 kHz / 448 kbps / DN -4dB

SUBTITLES:

Codec                           Language        Bitrate         Description
-----                           --------        -------         -----------
Presentation Graphics           English         34,709 kbps
Presentation Graphics           Spanish         24,264 kbps
Presentation Graphics           Chinese         23,475 kbps
Presentation Graphics           Chinese         27,442 kbps
Presentation Graphics           Chinese         24,292 kbps
Presentation Graphics           Korean          14,370 kbps
Presentation Graphics           Arabic          13,738 kbps
Presentation Graphics           Bulgarian       23,013 kbps
Presentation Graphics           Croatian        24,410 kbps
Presentation Graphics           Czech           23,603 kbps
Presentation Graphics           Estonian        26,755 kbps
Presentation Graphics           Greek           25,100 kbps
Presentation Graphics           Hungarian       22,922 kbps
Presentation Graphics           Latvian         24,288 kbps
Presentation Graphics           Lithuanian      24,224 kbps
Presentation Graphics           Polish          21,427 kbps
Presentation Graphics           Portuguese      24,908 kbps
Presentation Graphics           Romanian        23,810 kbps
Presentation Graphics           Ukrainian       15,013 kbps
Presentation Graphics           Slovenian       21,904 kbps
Presentation Graphics           Thai            24,882 kbps
Presentation Graphics           Turkish         25,334 kbps
Presentation Graphics           Spanish         0,867 kbps
Presentation Graphics           Czech           1,070 kbps
Presentation Graphics           Hungarian       1,250 kbps
Presentation Graphics           Polish          0,422 kbps
Presentation Graphics           Ukrainian       1,151 kbps
Presentation Graphics           Thai            0,786 kbps

FILES:

Name            Time In         Length          Size            Total Bitrate
----            -------         ------          ----            -------------
01218.M2TS      0:00:00.000     2:01:49.093     28 551 622 656  31 251

CHAPTERS:

Number          Time In         Length          Avg Video Rate  Max 1-Sec Rate  Max 1-Sec Time  Max 5-Sec Rate  Max 5-Sec Time  Max 10Sec Rate  Max 10Sec Time  Avg Frame Size  Max Frame Size  Max Frame Time
------          -------         ------          --------------  --------------  --------------  --------------  --------------  --------------  --------------  --------------  --------------  --------------
1               0:00:00.000     0:10:28.794     20 417 kbps     25 530 kbps     00:00:14.055    22 579 kbps     00:00:10.051    22 071 kbps     00:09:19.725    106 438 bytes   634 442 bytes   00:00:15.056
2               0:10:28.794     0:10:32.506     20 417 kbps     23 704 kbps     00:12:48.684    22 189 kbps     00:17:20.998    21 987 kbps     00:18:18.764    106 442 bytes   256 792 bytes   00:13:24.678
3               0:21:01.301     0:07:43.671     19 909 kbps     23 840 kbps     00:27:05.457    22 302 kbps     00:24:12.742    22 081 kbps     00:24:07.737    103 795 bytes   385 536 bytes   00:24:17.747
4               0:28:44.973     0:09:29.527     20 430 kbps     27 617 kbps     00:32:32.909    22 374 kbps     00:32:36.913    22 081 kbps     00:29:11.916    106 511 bytes   435 268 bytes   00:31:27.510
5               0:38:14.500     0:08:07.069     20 344 kbps     26 970 kbps     00:41:41.749    22 870 kbps     00:41:37.745    22 352 kbps     00:41:32.740    106 064 bytes   442 578 bytes   00:39:17.855
6               0:46:21.570     0:09:57.722     20 967 kbps     26 860 kbps     00:51:37.677    22 814 kbps     00:51:33.673    22 272 kbps     00:51:28.710    109 311 bytes   290 209 bytes   00:56:19.292
7               0:56:19.292     0:08:21.876     20 070 kbps     23 663 kbps     01:00:38.801    22 178 kbps     01:00:38.760    22 037 kbps     01:00:37.508    104 636 bytes   351 417 bytes   01:00:47.518
8               1:04:41.168     0:11:00.576     20 842 kbps     24 542 kbps     01:08:41.659    22 338 kbps     01:14:27.921    22 060 kbps     01:11:56.061    108 661 bytes   387 204 bytes   01:10:39.485
9               1:15:41.745     0:10:34.300     20 155 kbps     23 156 kbps     01:18:51.059    22 090 kbps     01:23:58.700    22 005 kbps     01:23:46.980    105 077 bytes   295 176 bytes   01:18:01.259
10              1:26:16.045     0:10:46.562     20 411 kbps     25 587 kbps     01:33:24.307    22 540 kbps     01:33:20.303    22 135 kbps     01:33:15.298    106 412 bytes   447 969 bytes   01:31:43.623
11              1:37:02.608     0:08:47.777     20 026 kbps     23 551 kbps     01:45:37.247    22 155 kbps     01:39:03.896    22 008 kbps     01:38:59.058    104 407 bytes   355 414 bytes   01:40:22.850
12              1:45:50.385     0:09:54.260     21 076 kbps     29 998 kbps     01:52:30.285    23 864 kbps     01:52:26.281    22 860 kbps     01:52:21.276    109 878 bytes   370 644 bytes   01:52:30.952
13              1:55:44.646     0:06:04.447     12 997 kbps     32 280 kbps     02:01:46.090    22 346 kbps     01:57:49.228    20 973 kbps     01:57:48.644    67 769 bytes    638 912 bytes   02:01:43.713

STREAM DIAGNOSTICS:

File            PID             Type            Codec           Language                Seconds                 Bitrate                 Bytes           Packets
----            ---             ----            -----           --------                --------------          --------------          -------------   -----
01218.M2TS      4113 (0x1011)   0x1B            AVC                                     7308,927                20 073                  18 338 876 846  99 769 809
01218.M2TS      4352 (0x1100)   0x83            TrueHD          eng (English)           7308,927                4 459                   4 074 267 530   27 803 824
01218.M2TS      4353 (0x1101)   0x81                         eng (English)           7308,927                448                     409 310 720     2 284 100
01218.M2TS      4354 (0x1102)   0x81                         eng (English)           7308,927                448                     409 310 720     2 284 100
01218.M2TS      4355 (0x1103)   0x81                         spa (Spanish)           7308,927                448                     409 310 720     2 284 100
01218.M2TS      4356 (0x1104)   0x81                         ces (Czech)             7308,927                448                     409 310 720     2 284 100
01218.M2TS      4357 (0x1105)   0x81                         hun (Hungarian)         7308,927                448                     409 310 720     2 284 100
01218.M2TS      4358 (0x1106)   0x81                         pol (Polish)            7308,927                448                     409 310 720     2 284 100
01218.M2TS      4359 (0x1107)   0x81                         ukr (Ukrainian)         7308,927                384                     350 833 152     2 055 663
01218.M2TS      4360 (0x1108)   0x81                         tha (Thai)              7308,927                448                     409 310 720     2 284 100
01218.M2TS      4608 (0x1200)   0x90            PGS             eng (English)           7308,927                35                      31 711 311      184 553
01218.M2TS      4609 (0x1201)   0x90            PGS             spa (Spanish)           7308,927                24                      22 168 200      128 754
01218.M2TS      4610 (0x1202)   0x90            PGS             zho (Chinese)           7308,927                23                      21 447 787      124 152
01218.M2TS      4611 (0x1203)   0x90            PGS             zho (Chinese)           7308,927                27                      25 071 655      144 986
01218.M2TS      4612 (0x1204)   0x90            PGS             zho (Chinese)           7308,927                24                      22 194 310      128 921
01218.M2TS      4613 (0x1205)   0x90            PGS             kor (Korean)            7308,927                14                      13 129 108      79 271
01218.M2TS      4614 (0x1206)   0x90            PGS             ara (Arabic)            7308,927                14                      12 551 105      76 874
01218.M2TS      4615 (0x1207)   0x90            PGS             bul (Bulgarian)         7308,927                23                      21 025 172      122 822
01218.M2TS      4616 (0x1208)   0x90            PGS             hrv (Croatian)          7308,927                24                      22 302 088      129 587
01218.M2TS      4617 (0x1209)   0x90            PGS             ces (Czech)             7308,927                24                      21 564 720      125 745
01218.M2TS      4618 (0x120A)   0x90            PGS             est (Estonian)          7308,927                27                      24 444 214      141 599
01218.M2TS      4619 (0x120B)   0x90            PGS             ell (Greek)             7308,927                25                      22 932 547      133 108
01218.M2TS      4620 (0x120C)   0x90            PGS             hun (Hungarian)         7308,927                23                      20 942 084      120 450
01218.M2TS      4621 (0x120D)   0x90            PGS             lav (Latvian)           7308,927                24                      22 190 393      129 376
01218.M2TS      4622 (0x120E)   0x90            PGS             lit (Lithuanian)        7308,927                24                      22 131 579      128 830
01218.M2TS      4623 (0x120F)   0x90            PGS             pol (Polish)            7308,927                21                      19 576 920      114 579
01218.M2TS      4624 (0x1210)   0x90            PGS             por (Portuguese)        7308,927                25                      22 756 735      132 148
01218.M2TS      4625 (0x1211)   0x90            PGS             ron (Romanian)          7308,927                24                      21 753 495      125 879
01218.M2TS      4626 (0x1212)   0x90            PGS             ukr (Ukrainian)         7308,927                15                      13 716 202      82 018
01218.M2TS      4627 (0x1213)   0x90            PGS             slv (Slovenian)         7308,927                22                      20 012 162      115 802
01218.M2TS      4628 (0x1214)   0x90            PGS             tha (Thai)              7308,927                25                      22 732 681      132 041
01218.M2TS      4629 (0x1215)   0x90            PGS             tur (Turkish)           7308,927                25                      23 146 325      134 270
01218.M2TS      4630 (0x1216)   0x90            PGS             spa (Spanish)           7308,927                1                       791 930         4 533
01218.M2TS      4631 (0x1217)   0x90            PGS             ces (Czech)             7308,927                1                       977 543         5 665
01218.M2TS      4632 (0x1218)   0x90            PGS             hun (Hungarian)         7308,927                1                       1 142 481       6 571
01218.M2TS      4633 (0x1219)   0x90            PGS             pol (Polish)            7308,927                0                       385 186         2 277
01218.M2TS      4634 (0x121A)   0x90            PGS             ukr (Ukrainian)         7308,927                1                       1 051 251       6 199
01218.M2TS      4635 (0x121B)   0x90            PGS             tha (Thai)              7308,927                1                       718 296         4 199


<---- END FORUMS PASTE ---->

QUICK SUMMARY:

Disc Title: JOKER_2019_BD_HURTOM
Disc Size: 34 508 821 978 bytes
Protection: AACS
BD-Java: Yes
Playlist: 00800.MPLS
Size: 28 551 622 656 bytes
Length: 2:01:49.093
Total Bitrate: 31,25 Mbps
Video: MPEG-4 AVC Video / 20072 kbps / 1080p / 23,976 fps / 16:9 / High Profile 4.1
Audio: English / Dolby TrueHD + Atmos / 7.1 / 48 kHz / 3819 kbps / 24-bit ( Embedded: 5.1-EX / 48 kHz / 640 kbps / DN -4dB)
Audio: English / Dolby Digital Audio / 5.1 / 48 kHz / 448 kbps / DN -4dB
Audio: English / Dolby Digital Audio / 5.1 / 48 kHz / 448 kbps / DN -4dB
Audio: Spanish / Dolby Digital Audio / 5.1 / 48 kHz / 448 kbps / DN -4dB
Audio: Czech / Dolby Digital Audio / 5.1 / 48 kHz / 448 kbps / DN -4dB
Audio: Hungarian / Dolby Digital Audio / 5.1 / 48 kHz / 448 kbps / DN -4dB
Audio: Polish / Dolby Digital Audio / 5.1 / 48 kHz / 448 kbps / DN -4dB
Audio: Ukrainian / Dolby Digital Audio / 5.1 / 48 kHz / 384 kbps / DN -4dB
Audio: Thai / Dolby Digital Audio / 5.1 / 48 kHz / 448 kbps / DN -4dB
Subtitle: English / 34,709 kbps
Subtitle: Spanish / 24,264 kbps
Subtitle: Chinese / 23,475 kbps
Subtitle: Chinese / 27,442 kbps
Subtitle: Chinese / 24,292 kbps
Subtitle: Korean / 14,370 kbps
Subtitle: Arabic / 13,738 kbps
Subtitle: Bulgarian / 23,013 kbps
Subtitle: Croatian / 24,410 kbps
Subtitle: Czech / 23,603 kbps
Subtitle: Estonian / 26,755 kbps
Subtitle: Greek / 25,100 kbps
Subtitle: Hungarian / 22,922 kbps
Subtitle: Latvian / 24,288 kbps
Subtitle: Lithuanian / 24,224 kbps
Subtitle: Polish / 21,427 kbps
Subtitle: Portuguese / 24,908 kbps
Subtitle: Romanian / 23,810 kbps
Subtitle: Ukrainian / 15,013 kbps
Subtitle: Slovenian / 21,904 kbps
Subtitle: Thai / 24,882 kbps
Subtitle: Turkish / 25,334 kbps
Subtitle: Spanish / 0,867 kbps
Subtitle: Czech / 1,070 kbps
Subtitle: Hungarian / 1,250 kbps
Subtitle: Polish / 0,422 kbps
Subtitle: Ukrainian / 1,151 kbps
Subtitle: Thai / 0,786 kbps

********************
PLAYLIST: 00201.MPLS
********************

<--- BEGIN FORUMS PASTE --->
Код:

                                                                                                                Total   Video
Title                                                           Codec   Length  Movie Size      Disc Size       Bitrate Bitrate Main Audio Track                          Secondary Audio Track
-----                                                           ------  ------- --------------  --------------  ------- ------- ------------------                        ---------------------
00201.MPLS                                                      AVC     0:22:25 3 742 199 808   34 508 821 978  22,25   20,27   DD 2.0 192Kbps


Код:


DISC INFO:

Disc Title:     JOKER_2019_BD_HURTOM
Disc Size:      34 508 821 978 bytes
Protection:     AACS
BD-Java:        Yes
BDInfo:         0.7.3.3

PLAYLIST REPORT:

Name:                   00201.MPLS
Length:                 0:22:25.218 (h:m:s.ms)
Size:                   3 742 199 808 bytes
Total Bitrate:          22,25 Mbps

VIDEO:

Codec                   Bitrate             Description
-----                   -------             -----------
MPEG-4 AVC Video        20274 kbps          1080p / 23,976 fps / 16:9 / High Profile 4.1

AUDIO:

Codec                           Language        Bitrate         Description
-----                           --------        -------         -----------
Dolby Digital Audio             English         192 kbps        2.0 / 48 kHz / 192 kbps / Dolby Surround

SUBTITLES:

Codec                           Language        Bitrate         Description
-----                           --------        -------         -----------
Presentation Graphics           English         77,619 kbps
Presentation Graphics           Spanish         72,348 kbps
Presentation Graphics           Chinese         63,461 kbps
Presentation Graphics           Chinese         68,309 kbps
Presentation Graphics           Korean          49,293 kbps
Presentation Graphics           Czech           65,411 kbps
Presentation Graphics           Hungarian       71,964 kbps
Presentation Graphics           Polish          69,166 kbps
Presentation Graphics           Ukrainian       41,167 kbps
Presentation Graphics           Thai            70,935 kbps
Presentation Graphics           Turkish         66,151 kbps

FILES:

Name            Time In         Length          Size            Total Bitrate
----            -------         ------          ----            -------------
01228.M2TS      0:00:00.000     0:22:25.218     3 742 199 808   22 255

CHAPTERS:

Number          Time In         Length          Avg Video Rate  Max 1-Sec Rate  Max 1-Sec Time  Max 5-Sec Rate  Max 5-Sec Time  Max 10Sec Rate  Max 10Sec Time  Avg Frame Size  Max Frame Size  Max Frame Time
------          -------         ------          --------------  --------------  --------------  --------------  --------------  --------------  --------------  --------------  --------------  --------------
1               0:00:00.000     0:22:25.218     20 274 kbps     41 736 kbps     00:01:24.334    37 990 kbps     00:05:32.373    36 699 kbps     00:10:09.233    105 700 bytes   626 601 bytes   00:05:54.270

STREAM DIAGNOSTICS:

File            PID             Type            Codec           Language                Seconds                 Bitrate                 Bytes           Packets
----            ---             ----            -----           --------                --------------          --------------          -------------   -----
01228.M2TS      4113 (0x1011)   0x1B            AVC                                     1345,052                20 277                  3 409 142 895   18 546 681
01228.M2TS      4352 (0x1100)   0x81                         eng (English)           1345,052                192                     32 279 808      210 155
01228.M2TS      4608 (0x1200)   0x90            PGS             eng (English)           1345,052                78                      13 051 883      74 081
01228.M2TS      4609 (0x1201)   0x90            PGS             spa (Spanish)           1345,052                72                      12 165 508      69 267
01228.M2TS      4610 (0x1202)   0x90            PGS             zho (Chinese)           1345,052                63                      10 671 119      61 047
01228.M2TS      4611 (0x1203)   0x90            PGS             zho (Chinese)           1345,052                68                      11 486 274      65 577
01228.M2TS      4612 (0x1204)   0x90            PGS             kor (Korean)            1345,052                49                      8 288 715       48 207
01228.M2TS      4613 (0x1205)   0x90            PGS             ces (Czech)             1345,052                65                      10 999 037      62 935
01228.M2TS      4614 (0x1206)   0x90            PGS             hun (Hungarian)         1345,052                72                      12 100 925      68 889
01228.M2TS      4615 (0x1207)   0x90            PGS             pol (Polish)            1345,052                69                      11 630 488      66 342
01228.M2TS      4616 (0x1208)   0x90            PGS             ukr (Ukrainian)         1345,052                41                      6 922 332       40 673
01228.M2TS      4617 (0x1209)   0x90            PGS             tha (Thai)              1345,052                71                      11 927 823      67 977
01228.M2TS      4618 (0x120A)   0x90            PGS             tur (Turkish)           1345,052                66                      11 123 481      63 603


<---- END FORUMS PASTE ---->

QUICK SUMMARY:

Disc Title: JOKER_2019_BD_HURTOM
Disc Size: 34 508 821 978 bytes
Protection: AACS
BD-Java: Yes
Playlist: 00201.MPLS
Size: 3 742 199 808 bytes
Length: 0:22:25.218
Total Bitrate: 22,25 Mbps
Video: MPEG-4 AVC Video / 20274 kbps / 1080p / 23,976 fps / 16:9 / High Profile 4.1
Audio: English / Dolby Digital Audio / 2.0 / 48 kHz / 192 kbps / Dolby Surround
Subtitle: English / 77,619 kbps
Subtitle: Spanish / 72,348 kbps
Subtitle: Chinese / 63,461 kbps
Subtitle: Chinese / 68,309 kbps
Subtitle: Korean / 49,293 kbps
Subtitle: Czech / 65,411 kbps
Subtitle: Hungarian / 71,964 kbps
Subtitle: Polish / 69,166 kbps
Subtitle: Ukrainian / 41,167 kbps
Subtitle: Thai / 70,935 kbps
Subtitle: Turkish / 66,151 kbps

********************
PLAYLIST: 00055.MPLS
********************

<--- BEGIN FORUMS PASTE --->
Код:

                                                                                                                Total   Video
Title                                                           Codec   Length  Movie Size      Disc Size       Bitrate Bitrate Main Audio Track                          Secondary Audio Track
-----                                                           ------  ------- --------------  --------------  ------- ------- ------------------                        ---------------------
00055.MPLS                                                      AVC     0:05:40 178 225 152     34 508 821 978  4,19    3,95


Код:


DISC INFO:

Disc Title:     JOKER_2019_BD_HURTOM
Disc Size:      34 508 821 978 bytes
Protection:     AACS
BD-Java:        Yes
BDInfo:         0.7.3.3

PLAYLIST REPORT:

Name:                   00055.MPLS
Length:                 0:05:40.298 (h:m:s.ms)
Size:                   178 225 152 bytes
Total Bitrate:          4,19 Mbps

VIDEO:

Codec                   Bitrate             Description
-----                   -------             -----------
MPEG-4 AVC Video        3946 kbps           1080p / 23,976 fps / 16:9 / Main Profile 4.0

FILES:

Name            Time In         Length          Size            Total Bitrate
----            -------         ------          ----            -------------
01072.M2TS      0:00:00.000     0:05:40.298     178 225 152     4 190

CHAPTERS:

Number          Time In         Length          Avg Video Rate  Max 1-Sec Rate  Max 1-Sec Time  Max 5-Sec Rate  Max 5-Sec Time  Max 10Sec Rate  Max 10Sec Time  Avg Frame Size  Max Frame Size  Max Frame Time
------          -------         ------          --------------  --------------  --------------  --------------  --------------  --------------  --------------  --------------  --------------  --------------
1               0:00:00.000     0:00:10.010     3 925 kbps      5 996 kbps      00:00:00.625    4 221 kbps      00:00:03.294    3 630 kbps      00:00:00.000    20 376 bytes    368 855 bytes   00:00:00.792
2               0:00:10.010     0:00:10.009     3 666 kbps      6 343 kbps      00:00:19.018    4 210 kbps      00:00:13.304    3 666 kbps      00:00:10.010    19 114 bytes    416 588 bytes   00:00:20.020
3               0:00:20.020     0:00:10.010     4 229 kbps      7 368 kbps      00:00:29.029    4 864 kbps      00:00:23.314    4 229 kbps      00:00:20.020    22 050 bytes    486 613 bytes   00:00:30.030
4               0:00:30.030     0:00:10.009     4 655 kbps      7 835 kbps      00:00:30.655    5 500 kbps      00:00:33.324    4 655 kbps      00:00:30.030    24 268 bytes    486 612 bytes   00:00:34.993
5               0:00:40.040     0:00:10.009     4 089 kbps      7 341 kbps      00:00:49.049    4 675 kbps      00:00:43.334    4 089 kbps      00:00:40.040    21 320 bytes    500 314 bytes   00:00:50.050
6               0:00:50.050     0:00:10.010     4 994 kbps      8 449 kbps      00:00:50.717    5 930 kbps      00:00:53.344    4 994 kbps      00:00:50.050    26 038 bytes    522 423 bytes   00:00:51.676
7               0:01:00.060     0:00:10.010     3 996 kbps      6 652 kbps      00:01:00.685    4 677 kbps      00:01:03.354    3 996 kbps      00:01:00.060    20 833 bytes    410 733 bytes   00:01:00.852
8               0:01:10.070     0:00:10.009     3 723 kbps      6 184 kbps      00:01:15.742    4 355 kbps      00:01:13.364    3 723 kbps      00:01:10.070    19 408 bytes    379 795 bytes   00:01:13.406
9               0:01:20.080     0:00:10.010     3 449 kbps      5 974 kbps      00:01:29.089    3 962 kbps      00:01:23.374    3 449 kbps      00:01:20.080    17 983 bytes    393 036 bytes   00:01:30.090
10              0:01:30.090     0:00:10.009     3 986 kbps      6 763 kbps      00:01:30.715    4 761 kbps      00:01:33.384    3 986 kbps      00:01:30.090    20 780 bytes    415 026 bytes   00:01:30.882
11              0:01:40.100     0:00:10.010     2 783 kbps      5 317 kbps      00:01:49.109    3 128 kbps      00:01:43.394    2 783 kbps      00:01:40.100    14 508 bytes    385 592 bytes   00:01:50.110
12              0:01:50.110     0:00:10.010     3 780 kbps      6 249 kbps      00:01:50.735    4 394 kbps      00:01:53.404    3 780 kbps      00:01:50.110    19 710 bytes    388 693 bytes   00:02:00.120
13              0:02:00.120     0:00:10.009     3 933 kbps      6 627 kbps      00:02:00.745    4 660 kbps      00:02:03.414    3 933 kbps      00:02:00.120    20 505 bytes    408 598 bytes   00:02:04.249
14              0:02:10.130     0:00:10.010     3 139 kbps      5 268 kbps      00:02:19.139    3 624 kbps      00:02:13.424    3 139 kbps      00:02:10.130    16 367 bytes    334 694 bytes   00:02:20.140
15              0:02:20.140     0:00:10.009     3 401 kbps      6 362 kbps      00:02:29.149    3 842 kbps      00:02:23.434    3 401 kbps      00:02:20.140    17 730 bytes    451 799 bytes   00:02:30.150
16              0:02:30.150     0:00:10.009     4 688 kbps      7 825 kbps      00:02:35.822    5 498 kbps      00:02:33.444    4 688 kbps      00:02:30.150    24 441 bytes    484 423 bytes   00:02:36.823
17              0:02:40.160     0:00:10.009     4 480 kbps      7 501 kbps      00:02:40.785    5 282 kbps      00:02:43.454    4 480 kbps      00:02:40.160    23 359 bytes    460 718 bytes   00:02:40.952
18              0:02:50.169     0:00:10.010     3 782 kbps      6 759 kbps      00:02:59.179    4 318 kbps      00:02:53.464    3 782 kbps      00:02:50.170    19 715 bytes    459 181 bytes   00:03:00.180
19              0:03:00.180     0:00:10.009     4 426 kbps      7 469 kbps      00:03:00.805    5 258 kbps      00:03:03.474    4 426 kbps      00:03:00.180    23 077 bytes    459 472 bytes   00:03:01.806
20              0:03:10.190     0:00:10.009     3 465 kbps      6 490 kbps      00:03:19.198    3 902 kbps      00:03:13.484    3 465 kbps      00:03:10.190    18 066 bytes    462 585 bytes   00:03:20.200
21              0:03:20.200     0:00:10.010     4 591 kbps      7 700 kbps      00:03:20.867    5 415 kbps      00:03:23.494    4 591 kbps      00:03:20.200    23 935 bytes    474 375 bytes   00:03:22.660
22              0:03:30.210     0:00:10.009     3 991 kbps      6 632 kbps      00:03:30.835    4 659 kbps      00:03:33.504    3 991 kbps      00:03:30.210    20 805 bytes    410 848 bytes   00:03:36.883
23              0:03:40.220     0:00:10.009     3 903 kbps      6 643 kbps      00:03:49.229    4 508 kbps      00:03:43.514    3 903 kbps      00:03:40.220    20 349 bytes    427 418 bytes   00:03:50.230
24              0:03:50.230     0:00:10.010     4 140 kbps      6 946 kbps      00:03:50.855    4 888 kbps      00:03:53.524    4 140 kbps      00:03:50.230    21 584 bytes    427 660 bytes   00:03:51.022
25              0:04:00.240     0:00:10.009     3 555 kbps      6 340 kbps      00:04:09.249    4 063 kbps      00:04:03.534    3 555 kbps      00:04:00.240    18 534 bytes    429 016 bytes   00:04:10.250
26              0:04:10.250     0:00:10.009     4 373 kbps      7 572 kbps      00:04:19.259    5 029 kbps      00:04:13.544    4 373 kbps      00:04:10.250    22 797 bytes    497 577 bytes   00:04:20.260
27              0:04:20.260     0:00:10.009     5 092 kbps      8 475 kbps      00:04:20.885    5 963 kbps      00:04:23.554    5 092 kbps      00:04:20.260    26 549 bytes    522 083 bytes   00:04:21.052
28              0:04:30.270     0:00:10.009     4 626 kbps      7 737 kbps      00:04:30.895    5 448 kbps      00:04:33.564    4 626 kbps      00:04:30.270    24 120 bytes    475 701 bytes   00:04:33.606
29              0:04:40.279     0:00:10.010     3 822 kbps      6 491 kbps      00:04:40.905    4 569 kbps      00:04:43.574    3 822 kbps      00:04:40.280    19 927 bytes    398 662 bytes   00:04:44.409
30              0:04:50.290     0:00:10.009     2 641 kbps      4 692 kbps      00:04:59.299    3 009 kbps      00:04:53.584    2 641 kbps      00:04:50.290    13 768 bytes    318 002 bytes   00:05:00.300
31              0:05:00.300     0:00:10.009     3 158 kbps      5 307 kbps      00:05:09.309    3 651 kbps      00:05:03.594    3 158 kbps      00:05:00.300    16 464 bytes    336 941 bytes   00:05:10.310
32              0:05:10.310     0:00:10.009     3 380 kbps      6 012 kbps      00:05:19.319    3 862 kbps      00:05:13.604    3 380 kbps      00:05:10.310    17 620 bytes    406 736 bytes   00:05:20.320
33              0:05:20.320     0:00:10.009     4 210 kbps      7 080 kbps      00:05:29.329    4 872 kbps      00:05:23.614    4 210 kbps      00:05:20.320    21 950 bytes    449 990 bytes   00:05:30.330
34              0:05:30.330     0:00:09.968     4 093 kbps      7 321 kbps      00:05:30.997    5 155 kbps      00:05:33.624    0 kbps          00:00:00.000    21 427 bytes    450 341 bytes   00:05:33.666

STREAM DIAGNOSTICS:

File            PID             Type            Codec           Language                Seconds                 Bitrate                 Bytes           Packets
----            ---             ----            -----           --------                --------------          --------------          -------------   -----
01072.M2TS      4113 (0x1011)   0x1B            AVC                                     340,173                 3 947                   167 852 480     916 843


<---- END FORUMS PASTE ---->

QUICK SUMMARY:

Disc Title: JOKER_2019_BD_HURTOM
Disc Size: 34 508 821 978 bytes
Protection: AACS
BD-Java: Yes
Playlist: 00055.MPLS
Size: 178 225 152 bytes
Length: 0:05:40.298
Total Bitrate: 4,19 Mbps
Video: MPEG-4 AVC Video / 3946 kbps / 1080p / 23,976 fps / 16:9 / Main Profile 4.0

********************
PLAYLIST: 00203.MPLS
********************

<--- BEGIN FORUMS PASTE --->
Код:

                                                                                                                Total   Video
Title                                                           Codec   Length  Movie Size      Disc Size       Bitrate Bitrate Main Audio Track                          Secondary Audio Track
-----                                                           ------  ------- --------------  --------------  ------- ------- ------------------                        ---------------------
00203.MPLS                                                      AVC     0:03:04 491 372 544     34 508 821 978  21,30   20,11   DD 2.0 192Kbps


Код:


DISC INFO:

Disc Title:     JOKER_2019_BD_HURTOM
Disc Size:      34 508 821 978 bytes
Protection:     AACS
BD-Java:        Yes
BDInfo:         0.7.3.3

PLAYLIST REPORT:

Name:                   00203.MPLS
Length:                 0:03:04.559 (h:m:s.ms)
Size:                   491 372 544 bytes
Total Bitrate:          21,30 Mbps

VIDEO:

Codec                   Bitrate             Description
-----                   -------             -----------
MPEG-4 AVC Video        20110 kbps          1080p / 23,976 fps / 16:9 / High Profile 4.1

AUDIO:

Codec                           Language        Bitrate         Description
-----                           --------        -------         -----------
Dolby Digital Audio             English         192 kbps        2.0 / 48 kHz / 192 kbps / Dolby Surround

SUBTITLES:

Codec                           Language        Bitrate         Description
-----                           --------        -------         -----------
Presentation Graphics           English         1,419 kbps
Presentation Graphics           Spanish         0,003 kbps
Presentation Graphics           Chinese         0,003 kbps
Presentation Graphics           Chinese         0,003 kbps
Presentation Graphics           Korean          0,003 kbps
Presentation Graphics           Czech           0,003 kbps
Presentation Graphics           Hungarian       0,003 kbps
Presentation Graphics           Polish          0,003 kbps
Presentation Graphics           Thai            0,003 kbps
Presentation Graphics           Turkish         0,003 kbps

FILES:

Name            Time In         Length          Size            Total Bitrate
----            -------         ------          ----            -------------
01230.M2TS      0:00:00.000     0:03:04.559     491 372 544     21 299

CHAPTERS:

Number          Time In         Length          Avg Video Rate  Max 1-Sec Rate  Max 1-Sec Time  Max 5-Sec Rate  Max 5-Sec Time  Max 10Sec Rate  Max 10Sec Time  Avg Frame Size  Max Frame Size  Max Frame Time
------          -------         ------          --------------  --------------  --------------  --------------  --------------  --------------  --------------  --------------  --------------  --------------
1               0:00:00.000     0:03:04.559     20 110 kbps     39 710 kbps     00:02:54.132    30 385 kbps     00:01:15.033    25 642 kbps     00:02:15.593    104 845 bytes   640 899 bytes   00:01:16.076

STREAM DIAGNOSTICS:

File            PID             Type            Codec           Language                Seconds                 Bitrate                 Bytes           Packets
----            ---             ----            -----           --------                --------------          --------------          -------------   -----
01230.M2TS      4113 (0x1011)   0x1B            AVC                                     184,393                 20 128                  463 941 133     2 523 958
01230.M2TS      4352 (0x1100)   0x81                         eng (English)           184,393                 192                     4 423 680       28 800
01230.M2TS      4608 (0x1200)   0x90            PGS             eng (English)           184,393                 1                       32 740          192
01230.M2TS      4609 (0x1201)   0x90            PGS             spa (Spanish)           184,393                 0                       70              7
01230.M2TS      4610 (0x1202)   0x90            PGS             zho (Chinese)           184,393                 0                       70              7
01230.M2TS      4611 (0x1203)   0x90            PGS             zho (Chinese)           184,393                 0                       70              7
01230.M2TS      4612 (0x1204)   0x90            PGS             kor (Korean)            184,393                 0                       70              7
01230.M2TS      4613 (0x1205)   0x90            PGS             ces (Czech)             184,393                 0                       70              7
01230.M2TS      4614 (0x1206)   0x90            PGS             hun (Hungarian)         184,393                 0                       70              7
01230.M2TS      4615 (0x1207)   0x90            PGS             pol (Polish)            184,393                 0                       70              7
01230.M2TS      4616 (0x1208)   0x90            PGS             tha (Thai)              184,393                 0                       70              7
01230.M2TS      4617 (0x1209)   0x90            PGS             tur (Turkish)           184,393                 0                       70              7


<---- END FORUMS PASTE ---->

QUICK SUMMARY:

Disc Title: JOKER_2019_BD_HURTOM
Disc Size: 34 508 821 978 bytes
Protection: AACS
BD-Java: Yes
Playlist: 00203.MPLS
Size: 491 372 544 bytes
Length: 0:03:04.559
Total Bitrate: 21,30 Mbps
Video: MPEG-4 AVC Video / 20110 kbps / 1080p / 23,976 fps / 16:9 / High Profile 4.1
Audio: English / Dolby Digital Audio / 2.0 / 48 kHz / 192 kbps / Dolby Surround
Subtitle: English / 1,419 kbps
Subtitle: Spanish / 0,003 kbps
Subtitle: Chinese / 0,003 kbps
Subtitle: Chinese / 0,003 kbps
Subtitle: Korean / 0,003 kbps
Subtitle: Czech / 0,003 kbps
Subtitle: Hungarian / 0,003 kbps
Subtitle: Polish / 0,003 kbps
Subtitle: Thai / 0,003 kbps
Subtitle: Turkish / 0,003 kbps

********************
PLAYLIST: 00202.MPLS
********************

<--- BEGIN FORUMS PASTE --->
Код:

                                                                                                                Total   Video
Title                                                           Codec   Length  Movie Size      Disc Size       Bitrate Bitrate Main Audio Track                          Secondary Audio Track
-----                                                           ------  ------- --------------  --------------  ------- ------- ------------------                        ---------------------
00202.MPLS                                                      AVC     0:02:44 444 512 256     34 508 821 978  21,56   20,07   DD 2.0 192Kbps


Код:


DISC INFO:

Disc Title:     JOKER_2019_BD_HURTOM
Disc Size:      34 508 821 978 bytes
Protection:     AACS
BD-Java:        Yes
BDInfo:         0.7.3.3

PLAYLIST REPORT:

Name:                   00202.MPLS
Length:                 0:02:44.956 (h:m:s.ms)
Size:                   444 512 256 bytes
Total Bitrate:          21,56 Mbps

VIDEO:

Codec                   Bitrate             Description
-----                   -------             -----------
MPEG-4 AVC Video        20073 kbps          1080p / 23,976 fps / 16:9 / High Profile 4.1

AUDIO:

Codec                           Language        Bitrate         Description
-----                           --------        -------         -----------
Dolby Digital Audio             English         192 kbps        2.0 / 48 kHz / 192 kbps / Dolby Surround

SUBTITLES:

Codec                           Language        Bitrate         Description
-----                           --------        -------         -----------
Presentation Graphics           English         17,427 kbps
Presentation Graphics           Spanish         24,663 kbps
Presentation Graphics           Chinese         25,879 kbps
Presentation Graphics           Chinese         28,843 kbps
Presentation Graphics           Korean          20,140 kbps
Presentation Graphics           Czech           23,344 kbps
Presentation Graphics           Hungarian       27,578 kbps
Presentation Graphics           Polish          24,428 kbps
Presentation Graphics           Ukrainian       15,017 kbps
Presentation Graphics           Thai            23,745 kbps
Presentation Graphics           Turkish         30,020 kbps

FILES:

Name            Time In         Length          Size            Total Bitrate
----            -------         ------          ----            -------------
01229.M2TS      0:00:00.000     0:02:44.956     444 512 256     21 558

CHAPTERS:

Number          Time In         Length          Avg Video Rate  Max 1-Sec Rate  Max 1-Sec Time  Max 5-Sec Rate  Max 5-Sec Time  Max 10Sec Rate  Max 10Sec Time  Avg Frame Size  Max Frame Size  Max Frame Time
------          -------         ------          --------------  --------------  --------------  --------------  --------------  --------------  --------------  --------------  --------------  --------------
1               0:00:00.000     0:02:44.956     20 073 kbps     36 177 kbps     00:00:41.666    35 593 kbps     00:00:41.624    29 423 kbps     00:00:36.619    104 652 bytes   234 667 bytes   00:02:33.653

STREAM DIAGNOSTICS:

File            PID             Type            Codec           Language                Seconds                 Bitrate                 Bytes           Packets
----            ---             ----            -----           --------                --------------          --------------          -------------   -----
01229.M2TS      4113 (0x1011)   0x1B            AVC                                     164,790                 20 093                  413 896 719     2 251 655
01229.M2TS      4352 (0x1100)   0x81                         eng (English)           164,790                 192                     3 953 664       25 740
01229.M2TS      4608 (0x1200)   0x90            PGS             eng (English)           164,790                 17                      359 337         2 042
01229.M2TS      4609 (0x1201)   0x90            PGS             spa (Spanish)           164,790                 25                      508 532         3 052
01229.M2TS      4610 (0x1202)   0x90            PGS             zho (Chinese)           164,790                 26                      533 615         3 180
01229.M2TS      4611 (0x1203)   0x90            PGS             zho (Chinese)           164,790                 29                      594 739         3 520
01229.M2TS      4612 (0x1204)   0x90            PGS             kor (Korean)            164,790                 20                      415 288         2 541
01229.M2TS      4613 (0x1205)   0x90            PGS             ces (Czech)             164,790                 23                      481 350         2 907
01229.M2TS      4614 (0x1206)   0x90            PGS             hun (Hungarian)         164,790                 28                      568 655         3 384
01229.M2TS      4615 (0x1207)   0x90            PGS             pol (Polish)            164,790                 24                      503 701         3 023
01229.M2TS      4616 (0x1208)   0x90            PGS             ukr (Ukrainian)         164,790                 15                      309 651         1 957
01229.M2TS      4617 (0x1209)   0x90            PGS             tha (Thai)              164,790                 24                      489 616         2 944
01229.M2TS      4618 (0x120A)   0x90            PGS             tur (Turkish)           164,790                 30                      619 008         3 654


<---- END FORUMS PASTE ---->

QUICK SUMMARY:

Disc Title: JOKER_2019_BD_HURTOM
Disc Size: 34 508 821 978 bytes
Protection: AACS
BD-Java: Yes
Playlist: 00202.MPLS
Size: 444 512 256 bytes
Length: 0:02:44.956
Total Bitrate: 21,56 Mbps
Video: MPEG-4 AVC Video / 20073 kbps / 1080p / 23,976 fps / 16:9 / High Profile 4.1
Audio: English / Dolby Digital Audio / 2.0 / 48 kHz / 192 kbps / Dolby Surround
Subtitle: English / 17,427 kbps
Subtitle: Spanish / 24,663 kbps
Subtitle: Chinese / 25,879 kbps
Subtitle: Chinese / 28,843 kbps
Subtitle: Korean / 20,140 kbps
Subtitle: Czech / 23,344 kbps
Subtitle: Hungarian / 27,578 kbps
Subtitle: Polish / 24,428 kbps
Subtitle: Ukrainian / 15,017 kbps
Subtitle: Thai / 23,745 kbps
Subtitle: Turkish / 30,020 kbps

********************
PLAYLIST: 00200.MPLS
********************

<--- BEGIN FORUMS PASTE --->
Код:

                                                                                                                Total   Video
Title                                                           Codec   Length  Movie Size      Disc Size       Bitrate Bitrate Main Audio Track                          Secondary Audio Track
-----                                                           ------  ------- --------------  --------------  ------- ------- ------------------                        ---------------------
00200.MPLS                                                      AVC     0:01:25 225 447 936     34 508 821 978  21,07   19,89   DD 2.0 192Kbps


Код:


DISC INFO:

Disc Title:     JOKER_2019_BD_HURTOM
Disc Size:      34 508 821 978 bytes
Protection:     AACS
BD-Java:        Yes
BDInfo:         0.7.3.3

PLAYLIST REPORT:

Name:                   00200.MPLS
Length:                 0:01:25.585 (h:m:s.ms)
Size:                   225 447 936 bytes
Total Bitrate:          21,07 Mbps

VIDEO:

Codec                   Bitrate             Description
-----                   -------             -----------
MPEG-4 AVC Video        19894 kbps          1080p / 23,976 fps / 16:9 / High Profile 4.1

AUDIO:

Codec                           Language        Bitrate         Description
-----                           --------        -------         -----------
Dolby Digital Audio             English         192 kbps        2.0 / 48 kHz / 192 kbps / Dolby Surround

SUBTITLES:

Codec                           Language        Bitrate         Description
-----                           --------        -------         -----------
Presentation Graphics           English         1,801 kbps
Presentation Graphics           Spanish         0,007 kbps
Presentation Graphics           Chinese         0,007 kbps
Presentation Graphics           Chinese         0,007 kbps
Presentation Graphics           Korean          0,007 kbps
Presentation Graphics           Czech           0,007 kbps
Presentation Graphics           Hungarian       0,007 kbps
Presentation Graphics           Polish          0,007 kbps
Presentation Graphics           Thai            0,007 kbps
Presentation Graphics           Turkish         0,007 kbps

FILES:

Name            Time In         Length          Size            Total Bitrate
----            -------         ------          ----            -------------
01227.M2TS      0:00:00.000     0:01:25.585     225 447 936     21 073

CHAPTERS:

Number          Time In         Length          Avg Video Rate  Max 1-Sec Rate  Max 1-Sec Time  Max 5-Sec Rate  Max 5-Sec Time  Max 10Sec Rate  Max 10Sec Time  Avg Frame Size  Max Frame Size  Max Frame Time
------          -------         ------          --------------  --------------  --------------  --------------  --------------  --------------  --------------  --------------  --------------  --------------
1               0:00:00.000     0:01:25.585     19 894 kbps     30 563 kbps     00:01:02.854    26 765 kbps     00:01:02.854    25 580 kbps     00:00:39.372    103 716 bytes   294 290 bytes   00:00:16.099

STREAM DIAGNOSTICS:

File            PID             Type            Codec           Language                Seconds                 Bitrate                 Bytes           Packets
----            ---             ----            -----           --------                --------------          --------------          -------------   -----
01227.M2TS      4113 (0x1011)   0x1B            AVC                                     85,419                  19 933                  212 826 025     1 157 819
01227.M2TS      4352 (0x1100)   0x81                         eng (English)           85,419                  192                     2 048 256       13 335
01227.M2TS      4608 (0x1200)   0x90            PGS             eng (English)           85,419                  2                       19 268          112
01227.M2TS      4609 (0x1201)   0x90            PGS             spa (Spanish)           85,419                  0                       70              7
01227.M2TS      4610 (0x1202)   0x90            PGS             zho (Chinese)           85,419                  0                       70              7
01227.M2TS      4611 (0x1203)   0x90            PGS             zho (Chinese)           85,419                  0                       70              7
01227.M2TS      4612 (0x1204)   0x90            PGS             kor (Korean)            85,419                  0                       70              7
01227.M2TS      4613 (0x1205)   0x90            PGS             ces (Czech)             85,419                  0                       70              7
01227.M2TS      4614 (0x1206)   0x90            PGS             hun (Hungarian)         85,419                  0                       70              7
01227.M2TS      4615 (0x1207)   0x90            PGS             pol (Polish)            85,419                  0                       70              7
01227.M2TS      4616 (0x1208)   0x90            PGS             tha (Thai)              85,419                  0                       70              7
01227.M2TS      4617 (0x1209)   0x90            PGS             tur (Turkish)           85,419                  0                       70              7


<---- END FORUMS PASTE ---->

QUICK SUMMARY:

Disc Title: JOKER_2019_BD_HURTOM
Disc Size: 34 508 821 978 bytes
Protection: AACS
BD-Java: Yes
Playlist: 00200.MPLS
Size: 225 447 936 bytes
Length: 0:01:25.585
Total Bitrate: 21,07 Mbps
Video: MPEG-4 AVC Video / 19894 kbps / 1080p / 23,976 fps / 16:9 / High Profile 4.1
Audio: English / Dolby Digital Audio / 2.0 / 48 kHz / 192 kbps / Dolby Surround
Subtitle: English / 1,801 kbps
Subtitle: Spanish / 0,007 kbps
Subtitle: Chinese / 0,007 kbps
Subtitle: Chinese / 0,007 kbps
Subtitle: Korean / 0,007 kbps
Subtitle: Czech / 0,007 kbps
Subtitle: Hungarian / 0,007 kbps
Subtitle: Polish / 0,007 kbps
Subtitle: Thai / 0,007 kbps
Subtitle: Turkish / 0,007 kbps

********************
PLAYLIST: 01310.MPLS
********************

<--- BEGIN FORUMS PASTE --->
Код:

                                                                                                                Total   Video
Title                                                           Codec   Length  Movie Size      Disc Size       Bitrate Bitrate Main Audio Track                          Secondary Audio Track
-----                                                           ------  ------- --------------  --------------  ------- ------- ------------------                        ---------------------
01310.MPLS                                                      AVC     0:01:02 167 823 360     34 508 821 978  21,46   20,27   DD 2.0 224Kbps


Код:


DISC INFO:

Disc Title:     JOKER_2019_BD_HURTOM
Disc Size:      34 508 821 978 bytes
Protection:     AACS
BD-Java:        Yes
BDInfo:         0.7.3.3

PLAYLIST REPORT:

Name:                   01310.MPLS
Length:                 0:01:02.562 (h:m:s.ms)
Size:                   167 823 360 bytes
Total Bitrate:          21,46 Mbps

VIDEO:

Codec                   Bitrate             Description
-----                   -------             -----------
MPEG-4 AVC Video        20265 kbps          1080p / 23,976 fps / 16:9 / High Profile 4.1

AUDIO:

Codec                           Language        Bitrate         Description
-----                           --------        -------         -----------
Dolby Digital Audio             English         224 kbps        2.0 / 48 kHz / 224 kbps

FILES:

Name            Time In         Length          Size            Total Bitrate
----            -------         ------          ----            -------------
01232.M2TS      0:00:00.000     0:01:02.562     167 823 360     21 460

CHAPTERS:

Number          Time In         Length          Avg Video Rate  Max 1-Sec Rate  Max 1-Sec Time  Max 5-Sec Rate  Max 5-Sec Time  Max 10Sec Rate  Max 10Sec Time  Avg Frame Size  Max Frame Size  Max Frame Time
------          -------         ------          --------------  --------------  --------------  --------------  --------------  --------------  --------------  --------------  --------------  --------------
1               0:00:00.000     0:00:03.003     19 145 kbps     23 915 kbps     00:00:01.501    0 kbps          00:00:00.000    0 kbps          00:00:00.000    98 447 bytes    638 564 bytes   00:00:00.000
2               0:00:03.003     0:00:59.559     20 322 kbps     24 371 kbps     00:01:01.019    21 595 kbps     00:00:57.015    20 846 kbps     00:00:26.151    106 022 bytes   640 139 bytes   00:00:46.046

STREAM DIAGNOSTICS:

File            PID             Type            Codec           Language                Seconds                 Bitrate                 Bytes           Packets
----            ---             ----            -----           --------                --------------          --------------          -------------   -----
01232.M2TS      4113 (0x1011)   0x1B            AVC                                     62,437                  20 306                  158 479 723     862 182
01232.M2TS      4352 (0x1100)   0x81                         eng (English)           62,437                  225                     1 752 576       9 780


<---- END FORUMS PASTE ---->

QUICK SUMMARY:

Disc Title: JOKER_2019_BD_HURTOM
Disc Size: 34 508 821 978 bytes
Protection: AACS
BD-Java: Yes
Playlist: 01310.MPLS
Size: 167 823 360 bytes
Length: 0:01:02.562
Total Bitrate: 21,46 Mbps
Video: MPEG-4 AVC Video / 20265 kbps / 1080p / 23,976 fps / 16:9 / High Profile 4.1
Audio: English / Dolby Digital Audio / 2.0 / 48 kHz / 224 kbps

********************
PLAYLIST: 01311.MPLS
********************

<--- BEGIN FORUMS PASTE --->
Код:

                                                                                                                Total   Video
Title                                                           Codec   Length  Movie Size      Disc Size       Bitrate Bitrate Main Audio Track                          Secondary Audio Track
-----                                                           ------  ------- --------------  --------------  ------- ------- ------------------                        ---------------------
01311.MPLS                                                      AVC     0:01:00 161 212 416     34 508 821 978  21,47   20,28   DD 2.0 224Kbps


Код:


DISC INFO:

Disc Title:     JOKER_2019_BD_HURTOM
Disc Size:      34 508 821 978 bytes
Protection:     AACS
BD-Java:        Yes
BDInfo:         0.7.3.3

PLAYLIST REPORT:

Name:                   01311.MPLS
Length:                 0:01:00.060 (h:m:s.ms)
Size:                   161 212 416 bytes
Total Bitrate:          21,47 Mbps

VIDEO:

Codec                   Bitrate             Description
-----                   -------             -----------
MPEG-4 AVC Video        20279 kbps          1080p / 23,976 fps / 16:9 / High Profile 4.1

AUDIO:

Codec                           Language        Bitrate         Description
-----                           --------        -------         -----------
Dolby Digital Audio             English         224 kbps        2.0 / 48 kHz / 224 kbps

FILES:

Name            Time In         Length          Size            Total Bitrate
----            -------         ------          ----            -------------
01233.M2TS      0:00:00.000     0:01:00.060     161 212 416     21 474

CHAPTERS:

Number          Time In         Length          Avg Video Rate  Max 1-Sec Rate  Max 1-Sec Time  Max 5-Sec Rate  Max 5-Sec Time  Max 10Sec Rate  Max 10Sec Time  Avg Frame Size  Max Frame Size  Max Frame Time
------          -------         ------          --------------  --------------  --------------  --------------  --------------  --------------  --------------  --------------  --------------  --------------
1               0:00:00.000     0:01:00.060     20 279 kbps     22 985 kbps     00:00:00.375    21 044 kbps     00:00:53.261    20 790 kbps     00:00:38.246    105 726 bytes   640 809 bytes   00:00:42.042

STREAM DIAGNOSTICS:

File            PID             Type            Codec           Language                Seconds                 Bitrate                 Bytes           Packets
----            ---             ----            -----           --------                --------------          --------------          -------------   -----
01233.M2TS      4113 (0x1011)   0x1B            AVC                                     59,935                  20 321                  152 244 937     828 252
01233.M2TS      4352 (0x1100)   0x81                         eng (English)           59,935                  224                     1 681 792       9 385


<---- END FORUMS PASTE ---->

QUICK SUMMARY:

Disc Title: JOKER_2019_BD_HURTOM
Disc Size: 34 508 821 978 bytes
Protection: AACS
BD-Java: Yes
Playlist: 01311.MPLS
Size: 161 212 416 bytes
Length: 0:01:00.060
Total Bitrate: 21,47 Mbps
Video: MPEG-4 AVC Video / 20279 kbps / 1080p / 23,976 fps / 16:9 / High Profile 4.1
Audio: English / Dolby Digital Audio / 2.0 / 48 kHz / 224 kbps

********************
PLAYLIST: 01312.MPLS
********************

<--- BEGIN FORUMS PASTE --->
Код:

                                                                                                                Total   Video
Title                                                           Codec   Length  Movie Size      Disc Size       Bitrate Bitrate Main Audio Track                          Secondary Audio Track
-----                                                           ------  ------- --------------  --------------  ------- ------- ------------------                        ---------------------
01312.MPLS                                                      AVC     0:01:00 160 131 072     34 508 821 978  21,33   20,28   DD 2.0 64Kbps


Код:


DISC INFO:

Disc Title:     JOKER_2019_BD_HURTOM
Disc Size:      34 508 821 978 bytes
Protection:     AACS
BD-Java:        Yes
BDInfo:         0.7.3.3

PLAYLIST REPORT:

Name:                   01312.MPLS
Length:                 0:01:00.060 (h:m:s.ms)
Size:                   160 131 072 bytes
Total Bitrate:          21,33 Mbps

VIDEO:

Codec                   Bitrate             Description
-----                   -------             -----------
MPEG-4 AVC Video        20279 kbps          1080p / 23,976 fps / 16:9 / High Profile 4.1

AUDIO:

Codec                           Language        Bitrate         Description
-----                           --------        -------         -----------
Dolby Digital Audio             English         64 kbps         2.0 / 48 kHz / 64 kbps

FILES:

Name            Time In         Length          Size            Total Bitrate
----            -------         ------          ----            -------------
01234.M2TS      0:00:00.000     0:01:00.060     160 131 072     21 329

CHAPTERS:

Number          Time In         Length          Avg Video Rate  Max 1-Sec Rate  Max 1-Sec Time  Max 5-Sec Rate  Max 5-Sec Time  Max 10Sec Rate  Max 10Sec Time  Avg Frame Size  Max Frame Size  Max Frame Time
------          -------         ------          --------------  --------------  --------------  --------------  --------------  --------------  --------------  --------------  --------------  --------------
1               0:00:00.000     0:01:00.060     20 279 kbps     22 985 kbps     00:00:00.375    21 044 kbps     00:00:53.261    20 790 kbps     00:00:38.246    105 726 bytes   640 809 bytes   00:00:42.042

STREAM DIAGNOSTICS:

File            PID             Type            Codec           Language                Seconds                 Bitrate                 Bytes           Packets
----            ---             ----            -----           --------                --------------          --------------          -------------   -----
01234.M2TS      4113 (0x1011)   0x1B            AVC                                     59,935                  20 321                  152 244 937     828 252
01234.M2TS      4352 (0x1100)   0x81                         eng (English)           59,935                  64                      480 512         3 754


<---- END FORUMS PASTE ---->

QUICK SUMMARY:

Disc Title: JOKER_2019_BD_HURTOM
Disc Size: 34 508 821 978 bytes
Protection: AACS
BD-Java: Yes
Playlist: 01312.MPLS
Size: 160 131 072 bytes
Length: 0:01:00.060
Total Bitrate: 21,33 Mbps
Video: MPEG-4 AVC Video / 20279 kbps / 1080p / 23,976 fps / 16:9 / High Profile 4.1
Audio: English / Dolby Digital Audio / 2.0 / 48 kHz / 64 kbps

********************
PLAYLIST: 01313.MPLS
********************

<--- BEGIN FORUMS PASTE --->
Код:

                                                                                                                Total   Video
Title                                                           Codec   Length  Movie Size      Disc Size       Bitrate Bitrate Main Audio Track                          Secondary Audio Track
-----                                                           ------  ------- --------------  --------------  ------- ------- ------------------                        ---------------------
01313.MPLS                                                      AVC     0:01:00 121 774 080     34 508 821 978  16,22   15,24   DD 2.0 224Kbps


Код:


DISC INFO:

Disc Title:     JOKER_2019_BD_HURTOM
Disc Size:      34 508 821 978 bytes
Protection:     AACS
BD-Java:        Yes
BDInfo:         0.7.3.3

PLAYLIST REPORT:

Name:                   01313.MPLS
Length:                 0:01:00.060 (h:m:s.ms)
Size:                   121 774 080 bytes
Total Bitrate:          16,22 Mbps

VIDEO:

Codec                   Bitrate             Description
-----                   -------             -----------
MPEG-4 AVC Video        15244 kbps          1080p / 23,976 fps / 16:9 / High Profile 4.1

AUDIO:

Codec                           Language        Bitrate         Description
-----                           --------        -------         -----------
Dolby Digital Audio             English         224 kbps        2.0 / 48 kHz / 224 kbps

FILES:

Name            Time In         Length          Size            Total Bitrate
----            -------         ------          ----            -------------
01235.M2TS      0:00:00.000     0:01:00.060     121 774 080     16 220

CHAPTERS:

Number          Time In         Length          Avg Video Rate  Max 1-Sec Rate  Max 1-Sec Time  Max 5-Sec Rate  Max 5-Sec Time  Max 10Sec Rate  Max 10Sec Time  Avg Frame Size  Max Frame Size  Max Frame Time
------          -------         ------          --------------  --------------  --------------  --------------  --------------  --------------  --------------  --------------  --------------  --------------
1               0:00:00.000     0:01:00.060     15 244 kbps     20 667 kbps     00:00:50.633    17 022 kbps     00:00:53.386    16 318 kbps     00:00:48.548    79 473 bytes    829 394 bytes   00:00:05.630

STREAM DIAGNOSTICS:

File            PID             Type            Codec           Language                Seconds                 Bitrate                 Bytes           Packets
----            ---             ----            -----           --------                --------------          --------------          -------------   -----
01235.M2TS      4113 (0x1011)   0x1B            AVC                                     59,893                  15 286                  114 441 362     622 830
01235.M2TS      4352 (0x1100)   0x81                         eng (English)           59,893                  225                     1 681 792       9 385


<---- END FORUMS PASTE ---->

QUICK SUMMARY:

Disc Title: JOKER_2019_BD_HURTOM
Disc Size: 34 508 821 978 bytes
Protection: AACS
BD-Java: Yes
Playlist: 01313.MPLS
Size: 121 774 080 bytes
Length: 0:01:00.060
Total Bitrate: 16,22 Mbps
Video: MPEG-4 AVC Video / 15244 kbps / 1080p / 23,976 fps / 16:9 / High Profile 4.1
Audio: English / Dolby Digital Audio / 2.0 / 48 kHz / 224 kbps

********************
PLAYLIST: 00053.MPLS
********************

<--- BEGIN FORUMS PASTE --->
Код:

                                                                                                                Total   Video
Title                                                           Codec   Length  Movie Size      Disc Size       Bitrate Bitrate Main Audio Track                          Secondary Audio Track
-----                                                           ------  ------- --------------  --------------  ------- ------- ------------------                        ---------------------
00053.MPLS                                                      AVC     0:00:50 53 932 032      34 508 821 978  8,63    8,20


Код:


DISC INFO:

Disc Title:     JOKER_2019_BD_HURTOM
Disc Size:      34 508 821 978 bytes
Protection:     AACS
BD-Java:        Yes
BDInfo:         0.7.3.3

PLAYLIST REPORT:

Name:                   00053.MPLS
Length:                 0:00:50.008 (h:m:s.ms)
Size:                   53 932 032 bytes
Total Bitrate:          8,63 Mbps

VIDEO:

Codec                   Bitrate             Description
-----                   -------             -----------
MPEG-4 AVC Video        8197 kbps           1080p / 23,976 fps / 16:9 / High Profile 4.0

FILES:

Name            Time In         Length          Size            Total Bitrate
----            -------         ------          ----            -------------
01073.M2TS      0:00:00.000     0:00:50.008     53 932 032      8 628

CHAPTERS:

Number          Time In         Length          Avg Video Rate  Max 1-Sec Rate  Max 1-Sec Time  Max 5-Sec Rate  Max 5-Sec Time  Max 10Sec Rate  Max 10Sec Time  Avg Frame Size  Max Frame Size  Max Frame Time
------          -------         ------          --------------  --------------  --------------  --------------  --------------  --------------  --------------  --------------  --------------  --------------
1               0:00:00.000     0:00:10.010     8 102 kbps      10 556 kbps     00:00:09.009    8 333 kbps      00:00:03.294    7 810 kbps      00:00:00.000    42 065 bytes    397 660 bytes   00:00:10.010
2               0:00:10.010     0:00:10.009     8 643 kbps      11 650 kbps     00:00:17.434    9 266 kbps      00:00:13.304    8 643 kbps      00:00:10.010    45 059 bytes    402 889 bytes   00:00:15.807
3               0:00:20.020     0:00:10.010     7 718 kbps      10 476 kbps     00:00:21.604    8 341 kbps      00:00:23.314    7 718 kbps      00:00:20.020    40 236 bytes    371 724 bytes   00:00:26.693
4               0:00:30.030     0:00:10.009     6 644 kbps      9 370 kbps      00:00:39.039    6 984 kbps      00:00:33.324    6 644 kbps      00:00:30.030    34 637 bytes    386 986 bytes   00:00:40.040
5               0:00:40.040     0:00:09.968     9 885 kbps      13 558 kbps     00:00:41.624    10 936 kbps     00:00:43.334    0 kbps          00:00:00.000    51 754 bytes    401 367 bytes   00:00:40.832

STREAM DIAGNOSTICS:

File            PID             Type            Codec           Language                Seconds                 Bitrate                 Bytes           Packets
----            ---             ----            -----           --------                --------------          --------------          -------------   -----
01073.M2TS      4113 (0x1011)   0x1B            AVC                                     49,883                  8 217                   51 238 618      279 200


<---- END FORUMS PASTE ---->

QUICK SUMMARY:

Disc Title: JOKER_2019_BD_HURTOM
Disc Size: 34 508 821 978 bytes
Protection: AACS
BD-Java: Yes
Playlist: 00053.MPLS
Size: 53 932 032 bytes
Length: 0:00:50.008
Total Bitrate: 8,63 Mbps
Video: MPEG-4 AVC Video / 8197 kbps / 1080p / 23,976 fps / 16:9 / High Profile 4.0

********************
PLAYLIST: 00054.MPLS
********************

<--- BEGIN FORUMS PASTE --->
Код:

                                                                                                                Total   Video
Title                                                           Codec   Length  Movie Size      Disc Size       Bitrate Bitrate Main Audio Track                          Secondary Audio Track
-----                                                           ------  ------- --------------  --------------  ------- ------- ------------------                        ---------------------
00054.MPLS                                                      AVC     0:00:29 35 948 544      34 508 821 978  9,59    9,12


Код:


DISC INFO:

Disc Title:     JOKER_2019_BD_HURTOM
Disc Size:      34 508 821 978 bytes
Protection:     AACS
BD-Java:        Yes
BDInfo:         0.7.3.3

PLAYLIST REPORT:

Name:                   00054.MPLS
Length:                 0:00:29.988 (h:m:s.ms)
Size:                   35 948 544 bytes
Total Bitrate:          9,59 Mbps

VIDEO:

Codec                   Bitrate             Description
-----                   -------             -----------
MPEG-4 AVC Video        9120 kbps           1080p / 23,976 fps / 16:9 / High Profile 4.0

FILES:

Name            Time In         Length          Size            Total Bitrate
----            -------         ------          ----            -------------
01071.M2TS      0:00:00.000     0:00:29.988     35 948 544      9 590

CHAPTERS:

Number          Time In         Length          Avg Video Rate  Max 1-Sec Rate  Max 1-Sec Time  Max 5-Sec Rate  Max 5-Sec Time  Max 10Sec Rate  Max 10Sec Time  Avg Frame Size  Max Frame Size  Max Frame Time
------          -------         ------          --------------  --------------  --------------  --------------  --------------  --------------  --------------  --------------  --------------  --------------
1               0:00:00.000     0:00:10.010     8 064 kbps      10 436 kbps     00:00:01.584    8 333 kbps      00:00:03.294    7 772 kbps      00:00:00.000    41 868 bytes    365 591 bytes   00:00:07.465
2               0:00:10.010     0:00:10.009     9 049 kbps      12 965 kbps     00:00:19.018    9 897 kbps      00:00:13.304    9 049 kbps      00:00:10.010    47 176 bytes    409 113 bytes   00:00:20.020
3               0:00:20.020     0:00:09.968     10 251 kbps     13 880 kbps     00:00:21.604    11 339 kbps     00:00:23.314    0 kbps          00:00:00.000    53 667 bytes    433 042 bytes   00:00:20.812

STREAM DIAGNOSTICS:

File            PID             Type            Codec           Language                Seconds                 Bitrate                 Bytes           Packets
----            ---             ----            -----           --------                --------------          --------------          -------------   -----
01071.M2TS      4113 (0x1011)   0x1B            AVC                                     29,863                  9 158                   34 185 297      186 205


<---- END FORUMS PASTE ---->

QUICK SUMMARY:

Disc Title: JOKER_2019_BD_HURTOM
Disc Size: 34 508 821 978 bytes
Protection: AACS
BD-Java: Yes
Playlist: 00054.MPLS
Size: 35 948 544 bytes
Length: 0:00:29.988
Total Bitrate: 9,59 Mbps
Video: MPEG-4 AVC Video / 9120 kbps / 1080p / 23,976 fps / 16:9 / High Profile 4.0

********************
PLAYLIST: 00052.MPLS
********************

<--- BEGIN FORUMS PASTE --->
Код:

                                                                                                                Total   Video
Title                                                           Codec   Length  Movie Size      Disc Size       Bitrate Bitrate Main Audio Track                          Secondary Audio Track
-----                                                           ------  ------- --------------  --------------  ------- ------- ------------------                        ---------------------
00052.MPLS                                                      AVC     0:00:23 29 712 384      34 508 821 978  10,23   9,74


Код:


DISC INFO:

Disc Title:     JOKER_2019_BD_HURTOM
Disc Size:      34 508 821 978 bytes
Protection:     AACS
BD-Java:        Yes
BDInfo:         0.7.3.3

PLAYLIST REPORT:

Name:                   00052.MPLS
Length:                 0:00:23.231 (h:m:s.ms)
Size:                   29 712 384 bytes
Total Bitrate:          10,23 Mbps

VIDEO:

Codec                   Bitrate             Description
-----                   -------             -----------
MPEG-4 AVC Video        9736 kbps           1080p / 23,976 fps / 16:9 / High Profile 4.0

FILES:

Name            Time In         Length          Size            Total Bitrate
----            -------         ------          ----            -------------
01070.M2TS      0:00:00.000     0:00:23.231     29 712 384      10 232

CHAPTERS:

Number          Time In         Length          Avg Video Rate  Max 1-Sec Rate  Max 1-Sec Time  Max 5-Sec Rate  Max 5-Sec Time  Max 10Sec Rate  Max 10Sec Time  Avg Frame Size  Max Frame Size  Max Frame Time
------          -------         ------          --------------  --------------  --------------  --------------  --------------  --------------  --------------  --------------  --------------  --------------
1               0:00:00.000     0:00:23.231     9 736 kbps      28 022 kbps     00:00:11.594    13 408 kbps     00:00:08.091    11 401 kbps     00:00:12.137    50 851 bytes    482 078 bytes   00:00:17.767

STREAM DIAGNOSTICS:

File            PID             Type            Codec           Language                Seconds                 Bitrate                 Bytes           Packets
----            ---             ----            -----           --------                --------------          --------------          -------------   -----
01070.M2TS      4113 (0x1011)   0x1B            AVC                                     23,148                  9 771                   28 273 304      153 973


<---- END FORUMS PASTE ---->

QUICK SUMMARY:

Disc Title: JOKER_2019_BD_HURTOM
Disc Size: 34 508 821 978 bytes
Protection: AACS
BD-Java: Yes
Playlist: 00052.MPLS
Size: 29 712 384 bytes
Length: 0:00:23.231
Total Bitrate: 10,23 Mbps
Video: MPEG-4 AVC Video / 9736 kbps / 1080p / 23,976 fps / 16:9 / High Profile 4.0


Джерело: &
Особиста оцінка: 10 - без зайвих вагань рекомендую всім!

Перевірено на: PowerDVD 17, та DVDFab.

Мій перший досвід в такому форматі, можливо будуть зауваження, побажання, з повагою вислухаю, якщо буде цікаво, можна продовжити.


Золотий реліз (завантажене не впливає на рейтинг)
 Трекер:    Зареєстрований   

Завантажити / скачати фільм українською



відео для новачків



 Зареєстрований:   2020-02-01 14:44
 Розмір:   32.14 GB 
 Оцінка фільму:   8.3/10 (Голосів: 18)
   
Інші релізи
   Джокер / Joker (2019) Ukr/Eng antik_2008  38 / 2   2.29 GB   2020-01-02 10:40 
   Джокер / Joker (2019) antik_2008  21 / 0   1.6 GB   2020-01-02 10:38 
   Джокер / Joker (2019) 1080p H.265 Ukr/Eng | Sub Eng -Star-Lord-  36 / 0   8.49 GB   2019-12-30 01:34 
   Джокер / Joker (2019) UHD Remux 4K 2160p HDR H.265 Ukr/Eng | Sub Eng antik_2008  12 / 0   46.89 GB   2019-12-30 01:15 
   Джокер / Joker (2019) 1080р Ukr/Eng | Sub Eng antik_2008  27 / 0   9.91 GB   2019-12-30 01:12 
   Джокер / Joker (2019) Remux 1080p Ukr/Eng | Sub Eng antik_2008  13 / 0   21.02 GB   2019-12-30 01:09 
   Джокер / Joker (2019) 720p Ukr/Eng | Sub Eng 11FrYkT  23 / 0   4.78 GB   2019-12-28 23:01 
   Джокер / Joker (2019) AVC Ukr/Eng | Sub Eng 11FrYkT  25 / 0   2.45 GB   2019-12-28 22:57 
uaxpasha 
VIP


З нами з: 05.08.12
Востаннє: 28.09.20
Повідомлень: 347

2020-02-02 23:36  
Дякую за екстра.
Можливо треба додати в назву EXTRA щоб можна було по пошуку знаходити подібні релізи з додатковим контентом?

Але русизми це зло. Не треба такого
01228.m2ts
14:53 "А потім ми розпечатували це"
16:05 "то, що треба..."
17:00 "Дуже рано"

kryk-v.ya. 
Попереджень: 1
Попереджень: 1 


З нами з: 14.02.14
Востаннє: 28.09.20
Повідомлень: 2250

2020-02-03 00:06  
uaxpasha написано:
Можливо треба додати в назву EXTRA щоб можна було по пошуку знаходити подібні релізи з додатковим контентом?

не думаю, сам формат Blu-ray за себе і говорить, що є допи, а вони є у всіх дисках, для того фактично і виникла ідея створити цей реліз, щоб глянули люди як створювався сам фільм, і це зовсім інше сприйняття "героя".
Цитата:
Але русизми це зло. Не треба такого

визнаю, є така в мене проблема, але буду шліфувати на майбутнє. Happy

uaxpasha 
VIP


З нами з: 05.08.12
Востаннє: 28.09.20
Повідомлень: 347

2020-02-03 16:04  
kryk-v.ya.
Тоді буду шукати, до цього не бачив й не дивився, але цікаво стало за улюблені фільми

kryk-v.ya. 
Попереджень: 1
Попереджень: 1 


З нами з: 14.02.14
Востаннє: 28.09.20
Повідомлень: 2250

2020-02-03 17:21  
uaxpasha написано:
Тоді буду шукати

якщо є приорітет, то гукніть в пп.

Goust 
Свій


З нами з: 07.02.12
Востаннє: 15.09.20
Повідомлень: 52

2020-04-29 08:56  
Як запустити на ТВ lg ? не розібрався повно папок (
kryk-v.ya. 
Попереджень: 1
Попереджень: 1 


З нами з: 14.02.14
Востаннє: 28.09.20
Повідомлень: 2250

2020-04-29 09:58  
Goust написано:
Як запустити на ТВ lg ? не розібрався повно папок

ну так це ж диск, Blu Ray, тут є меню, допи і т.д.,
як на лджі незнаю, якщо це смарт то має бути в меню телевізора інструкція...якщо просто з флешки чи мережевої папки то заходите по адресу BDMV-STREAM-01218.m2ts.

sumarmds 
Новенький


З нами з: 10.07.19
Востаннє: 26.09.20
Повідомлень: 14

2020-09-23 09:39  
Нарешті подивився цей фільм. Не зайшов, так, картинка виглядає не дешево але не більше того. Є пару-трійку моментів коли хочуть надавити на жалість та розуміння цієї психічнохворої людини і майже вдалось. Але в цілому фільм слабкий, ніпрощо. Здогадуюсь що хотіли творці фільму показати, але не вийшло. Судячи по рейтингу багатьом "зайшло". Моя оцінка 4 з 10.
Ваш часовий пояс: GMT + 2 Години

Нова тема   Відповісти