Я ненавиджу біль, тому покращу свій захист на максимум / Itai no wa Iya nano de Bougyoryoku ni Kyokufuri Shitai to Omoimasu (серій 3 з 12) (2020) 720p Jap | Sub Ukr

Нові коментарі

Нова тема   Відповісти
Автор Повідомлення
Sasha labatuk 
Новенький


З нами з: 26.02.16
Востаннє: 31.03.20
Повідомлень: 12

2020-02-01 03:26  
Я ненавиджу біль, тому покращу свій захист на максимум / Itai no wa Iya nano de Bougyoryoku ni Kyokufuri Shitai to Omoimasu (серій 3 з 12) (2020) 720p Jap | Sub Ukr

Я ненавиджу біль, тому покращу свій захист на максимум / Itai no wa Iya nano de Bougyoryoku ni Kyokufuri Shitai to Omoimasu (серій 3 з 12) (2020) 720p Jap | Sub Ukr


Жанр: комедія, пригодницький, фантастика, екшн
Країна: Японія



Кінокомпанія: Silver Link
Режисер: Онума Шін
Актори: Хаямі Саорі, Каеде Хондо, Какума Ай, Сува Нанака та інші

Сюжет:
Отримавши запрошення від своєї подруги Ріси Шираміне, Каеде Хондзе занурюється в VRMMO-гру «New World Online» в ролі персонажа Мейпл. Не маючи ні найменшого уявлення про те, як грати в цю гру, вона витрачає всі свої очки умінь на захист. В результаті її рухи стають повільними, Каеде не може використовувати магію і навіть піддається нападу кроликів. Проте завдяки такому розподілу своїх очок вона отримує уміння під назвою «Абсолютний захист», яке вбиває одним ударом і повністю блокує атаки ворога. Так Каеде, граючи в стилі «мобільної фортеці», вирушає назустріч пригодам.


Тривалість: 1 серія: ~24:00 (цілком серій: 3 з 12)
Список серій:
1.Захист і перший бій
2.Захист і друзі
3.Захист і Другий Етап
4.Захист і другий івент
5.Захист і бойові трофеї
6.Захист і поповнення
7.Захист і підсилення
8.???
9.???
10.???
11.???
12.???
Якість:
Відео:
кодек:
розмір кадру: 1280x720
бітрейт: 3230 Кбіт/с

Аудіо:
мова: японська
переклад: оригінал
кодек: 2.0
бітрейт: 256 Кбіт/с

Субтитри:
мова: українська
тип: програмні (м'які)
формат: *.
Info
General
Unique ID : 220002320789248047355911633978181387820 (0xA582E7DEDB41E50F41E59749E9B9862C)
Complete name : D:\Гуртом\Itai no wa Iya nano de Bougyoryoku ni Kyokufuri Shitai to Omoimasu [WEBRip720p]\Itai no wa Iya nano de Bougyoryoku ni Kyokufuri Shitai to Omoimasu - 01 [720p].
Format :
Format version : Version 4
File size : 594 MiB
Duration : 23 min 50 s
Overall bit rate : 3 487 kb/s
Encoded date : UTC 2020-01-31 23:18:42
Writing application : v43.0.0 ('The Quartermaster') 64-bit
Writing library : libebml v1.3.10 + v1.5.2
Attachments : ariblk.ttf / ariblk_0.ttf / FrizQuadrataC.otf / OpenSans-Semibold.ttf

Video
ID : 1
Format : AVC
Format/Info : Advanced Video Codec
Format profile : [email protected]
Format settings : CABAC / 4 Ref Frames
Format settings, CABAC : Yes
Format settings, Reference frames : 4 frames
Codec ID : V_MPEG4/ISO/AVC
Duration : 23 min 50 s
Bit rate : 3 229 kb/s
Nominal bit rate : 3 500 kb/s
Width : 1 280 pixels
Height : 720 pixels
Display aspect ratio : 16:9
Frame rate mode : Constant
Frame rate : 23.976 (24000/1001) FPS
Color space : YUV
Chroma subsampling : 4:2:0
Bit depth : 8 bits
Scan type : Progressive
Bits/(Pixel*Frame) : 0.146
Stream size : 550 MiB (93%)
Writing library : core 157 r2948 dada181
Encoding settings : cabac=1 / ref=1 / deblock=1:0:0 / analyse=0x1:0x111 / me=hex / subme=7 / psy=1 / psy_rd=1.00:0.00 / mixed_ref=0 / me_range=16 / chroma_me=1 / trellis=1 / 8x8dct=0 / cqm=0 / deadzone=21,11 / fast_pskip=1 / chroma_qp_offset=-2 / threads=22 / lookahead_threads=3 / sliced_threads=0 / nr=0 / decimate=1 / interlaced=0 / bluray_compat=0 / constrained_intra=0 / bframes=2 / b_pyramid=2 / b_adapt=1 / b_bias=0 / direct=1 / weightb=1 / open_gop=0 / weightp=2 / keyint=48 / keyint_min=4 / scenecut=40 / intra_refresh=0 / rc_lookahead=40 / rc=cbr / mbtree=1 / bitrate=3500 / ratetol=1.0 / qcomp=0.60 / qpmin=0 / qpmax=69 / qpstep=4 / vbv_maxrate=3500 / vbv_bufsize=10500 / nal_hrd=none / filler=0 / ip_ratio=1.40 / aq=1:1.00
Default : Yes
Forced : No

Audio
ID : 2
Format : LC
Format/Info : Advanced Audio Codec Low Complexity
Codec ID : A_AAC-2
Duration : 23 min 50 s
Bit rate : 253 kb/s
Channel(s) : 2 channels
Channel layout : L R
Sampling rate : 48.0 kHz
Frame rate : 46.875 FPS (1024 SPF)
Compression mode : Lossy
Delay relative to video : -42 ms
Stream size : 43.2 MiB (7%)
Language : Japanese
Default : Yes
Forced : No

Text
ID : 3
Format :
Codec ID : S_TEXT/
Codec ID/Info : Advanced Sub Station Alpha
Duration : 22 min 8 s
Bit rate : 799 b/s
Count of elements : 484
Compression mode : Lossless
Stream size : 130 KiB (0%)
Language : Ukrainian
Default : Yes
Forced : No
Скріншоти



Переклад: Black Gamer (Олександр Лабатюк)
Редагування: Black Gamer (Олександр Лабатюк) та SiRoB

Джерело субтитрів: Horrible Subs

Джерело:
Особиста оцінка: 8 - мені сподобалося


Золотий реліз (завантажене не впливає на рейтинг)
 Трекер:    Зареєстрований   

Завантажити / скачати аніме українською



відео для новачків



 Зареєстрований:   2020-02-16 01:54
 Розмір:   1.74 GB 
 Оцінка аніме:   10/10 (Голосів: 4)
   
Sasha labatuk 
Новенький


З нами з: 26.02.16
Востаннє: 31.03.20
Повідомлень: 12

2020-02-05 22:43  
Реліз оновлено!

Додано 2 серію!

SiRoB 
Новенький


З нами з: 21.11.10
Востаннє: 30.03.20
Повідомлень: 9

2020-02-05 22:49  
Додано другу серію, а на роздачі нікого нема. Навіть першу серію не можу завантажити((
ImfromUkraine 
VIP


З нами з: 18.02.12
Востаннє: 26.03.20
Повідомлень: 345

2020-02-10 21:42  
вкажiть у назвi, будьте ласкавi, кiлькiсть наявних в роздачi серiй
Sasha labatuk 
Новенький


З нами з: 26.02.16
Востаннє: 31.03.20
Повідомлень: 12

2020-02-14 14:08  
Реліз оновлено!

Додано 3 серію!

Sasha labatuk 
Новенький


З нами з: 26.02.16
Востаннє: 31.03.20
Повідомлень: 12

2020-02-16 01:55  
Реліз оновлено!

Виправлено помилки у тексті!

11FrYkT 
Модератор відео


З нами з: 20.02.11
Востаннє: 31.03.20
Повідомлень: 6694

2020-02-23 14:26  
Sasha labatuk , зауваження ті самі + як це так Ви на різні роздачі Ви додаєте одні і тіж скріни?
Ваш часовий пояс: GMT + 2 Години

Нова тема   Відповісти