Динофроз / Dinofroz (Сезон 2, 24 серії з 26) (2015) 1080p Ukr/Eng

Нові коментарі

Нова тема   Відповісти
Останній раз роздавалося frozol (2021-04-06)
Автор Повідомлення
sergiyko.5 
Забанено
Забанено


З нами з: 25.02.16
Востаннє: 29.10.20
Повідомлень: 3648

2020-01-31 20:53  
Всі одноіменні релізи на трекері

Динофроз / Dinofroz (Сезон 2) (2015) 1080p Ukr/Eng


Динофроз / Dinofroz (Сезон 2, 24 серії з 26) (2015) 1080p Ukr/Eng

Жанр: пригоди, фентезі
Країна: Італія
Кінокомпанія: Giochi Preziosi, MEG Entertainment Group, Mondo TV
Режисер: Орландо Корраді

Сюжет:
У центрі уваги сюжету квартет простих дванадцятирічних школярів. Головні персонажі займаються типовими для свого віку речами: вони веселяться, добре проводять час, відпочивають і займаються спортом. Однак найменше Боб, Ерік, Джон і Том могли собі уявити, що своєю веселою компанією виявляться в іншому вимірі, де життя проходить трохи інакше, не так як в звичному для них світі. Тут мешкають дивні істоти, в яких головні персонажі перетворюються самі. Вони - динозаври, але вельми маленькі. Щоб стати кимось більш істотним, потрібно робити добрі справи. Хлопці виявляються в епіцентрі війни з драконами, яка розгортається неймовірним чином.




Тривалість: 1 серія: 26:00 (цілком серій: 24 з 26)
Якість:

Відео: кодек: розмір кадру: 1920 х 1080 бітрейт: 2000 кб/с
Аудіо: мова: українська переклад: багатоголосий закадровий кодек: MP2 2.0 бітрейт: 160 кб/с
Озвучення: КІТ
Аудіо: мова: англійська переклад: оригінал кодек: 2.0 бітрейт: 128 кб/с

Примітка: українська доріжка записана з супутникової трансляції і синхронізована під відео, звук не розтягувався і не змінювався тон.
Перелік серій
01 Return to the Past World
02 The Iron Dinosaur
03 An Island in the Sky
04 A New Dinofroz
05 The Legend of Firerock
06 The Dragon From the Swamp
07 Mistery at the Center of the Earth
08 The Dragon Slayers
09 Race Against Time
10 The Girl With the Jade Eyes
11 Codename.Dominion Project
12 The Fury of Drakemon
13 The Power of the Dinowatch
14 The Day of the Two Stars
15 The Shadow of Betrayal
16 Acquisition Triceratops
17 In the Lair of the Enemy
18 Face to Face
19 A New Alliance
20 Mission Incredible
21 Tower Assault
22 The Ice Prison
23 Unexpected Proposal
24 From Father to Son
Про файл:
General
Unique ID : 34697071928667222932808105419463609762 (0x1A1A69B91F676A31DEBF957AA6024DA2)
Complete name : D:\Documents\Torrents\MULTSER_2\Dinofroz S02 1080p \S02E01.Return to the Past World.1080p..
Format :
Format version : Version 4
File size : 355 MiB
Duration : 25 min 35 s
Overall bit rate : 1 939 kb/s
Movie name : rip by sergiyko
Encoded date : UTC 2020-01-31 10:34:38
Writing application : v42.0.0 ('Overtime') 64-bit
Writing library : libebml v1.3.10 + v1.5.2

Video
ID : 1
Format : AVC
Format/Info : Advanced Video Codec
Format profile : [email protected]
Format settings : CABAC / 3 Ref Frames
Format settings, CABAC : Yes
Format settings, Reference : 3 frames
Codec ID : V_MPEG4/ISO/AVC
Duration : 25 min 35 s
Bit rate : 1 651 kb/s
Width : 1 920 pixels
Height : 1 080 pixels
Display aspect ratio : 16:9
Frame rate mode : Constant
Frame rate : 25.000 FPS
Color space : YUV
Chroma subsampling : 4:2:0
Bit depth : 8 bits
Scan type : Progressive
Bits/(Pixel*Frame) : 0.032
Stream size : 302 MiB (85%)
Language : English
Default : Yes
Forced : No
Color range : Limited
Color primaries : BT.709
Transfer characteristics : BT.709
Matrix coefficients : BT.709

Audio #1
ID : 2
Format : MPEG Audio
Format version : Version 1
Format profile : Layer 2
Codec ID : A_MPEG/L2
Codec ID/Hint : MP2
Duration : 25 min 34 s
Bit rate mode : Constant
Bit rate : 160 kb/s
Channel(s) : 2 channels
Sampling rate : 48.0 kHz
Frame rate : 41.667 FPS (1152 SPF)
Compression mode : Lossy
Delay relative to video : 20 ms
Stream size : 29.3 MiB (8%)
Language : Ukrainian
Default : Yes
Forced : Yes

Audio #2
ID : 3
Format : LC
Format/Info : Advanced Audio Codec Low Complexity
Codec ID : A_AAC-2
Duration : 25 min 35 s
Bit rate : 126 kb/s
Channel(s) : 2 channels
Channel layout : L R
Sampling rate : 44.1 kHz
Frame rate : 43.066 FPS (1024 SPF)
Compression mode : Lossy
Stream size : 23.0 MiB (6%)
Language : English
Default : No
Forced : No
Скріншоти:


Запис/зведення: sergiyko


Бронзовий реліз (на рейтинг впливає 75% завантаженого)
 Трекер:    Зареєстрований   

Завантажити / скачати мультфільм українською



відео для новачків



 Зареєстрований:   2020-03-15 20:05
 Розмір:   8.92 GB 
 Оцінка мультсеріалу:   8.5/10 (Голосів: 6)
   
sergiyko.5 
Забанено
Забанено


З нами з: 25.02.16
Востаннє: 29.10.20
Повідомлень: 3648

2020-03-15 20:06  
Додав нові серії.
ssTAss 
Модератор музики


З нами з: 05.07.08
Востаннє: 11.04.21
Повідомлень: 17580

2020-11-14 03:31  
Ваш часовий пояс: GMT + 2 Години

Нова тема   Відповісти