Горда Мері / Proud Mary (2018) 720p Eng | Sub Ukr/Eng

Нові коментарі

Нова тема   Відповісти
Автор Повідомлення
Anonymous 







2020-01-31 18:43  
Горда Мері / Proud Mary (2018) 720p Eng | Sub Ukr/Eng

Альтернативні постери:






Жанр: бойовик, кримінальний, драма, трилер
Країна: США



Кінокомпанія: Screen Gems
Режисер: Бабак Наджафі / Babak Najafi
Актори: Тараджі П. Хенсон / Taraji P. Henson, Біллі Браун / Billy Brown, Jahi Di'Allo Winston / Jahi Di'Allo Winston, Ніл МакДонаф / Neal McDonough, Маргарет Ейвері / Margaret Avery, Ксандер Берклі / Xander Berkeley, Рад Сербеджа / Rade Serbedzija, Ерік Ларай Гарві / Erik LaRay Harvey, Денні Ґловер / Danny Glover, Овен Бурк / Owen Burke, Алекс Портенко, Владімір Орлов та інші

Сюжет:
Мері — висококласний кілер, що працює на кримінальне угрупування в Бостоні. У неї є гордість та свої принципи, тому під час виконання чергового завдання вона залишає живого сина-підлітка жертви, Денні. Рік по тому хлопець займається доставкою наркотиків для російської банди у Нью-Йорку. Йому живеться несолодко, Денні постійно луплять та принижують, доки Мері, яку мучить почуття провини, не бере на себе турботу про сироту. Але вона трохи перестаралася - вбила кількох членів російської мафії та розв'язала війну між бандами.
Офіційний трейлер:


Рейтинг MPAA: R - особам до 17 років обов'язкова присутність батьків або дорослого опікуна
Вікова категорія: 16+

Тривалість: 01:29:02
Якість: 720p

Відео:
кодек:
розмір кадру: 1280х534
бітрейт: 4546 кб/с

Аудіо:
мова: англійська
переклад: оригінал
кодек: 5.1
бітрейт: 448 кб/с

Субтитри # 1:
мова: українська
тип: програмні (м'які)
формат: *.srt
перекладач: Володимир Фатун

Субтитри # 2:
мова: англійська
тип: програмні (м'які)
формат: *.srt

Збережено оригінальні розділи, як на Blu-ray
Info
Код:

Complete name               : Proud Mary (2018) [Eng sub.Ukr,Eng] 720p [Hurtom].
Format                      :
Format version              : Version 4
File size                   : 3.11 GiB
Duration                    : 1 h 29 min
Overall bit rate            : 4 997 kb/s
Movie name                  : Горда Мері / Proud Mary (2018) [Eng sub.Ukr,Eng] 720p [Hurtom]
Encoded date                : UTC 2020-01-31 16:28:28
Writing application         : v43.0.0 ('The Quartermaster') 64-bit
Writing library             : libebml v1.3.10 + v1.5.2
Cover                       : Yes
Attachments                 : cover.jpg

Video
ID                          : 1
Format                      : AVC
Format/Info                 : Advanced Video Codec
Format profile              : [email protected]
Format settings             : CABAC / 11 Ref Frames
Format settings, CABAC      : Yes
Format settings, Reference  : 11 frames
Codec ID                    : V_MPEG4/ISO/AVC
Duration                    : 1 h 29 min
Bit rate                    : 4 546 kb/s
Width                       : 1 280 pixels
Height                      : 534 pixels
Display aspect ratio        : 2.40:1
Frame rate mode             : Constant
Frame rate                  : 23.976 (24000/1001) FPS
Color space                 : YUV
Chroma subsampling          : 4:2:0
Bit depth                   : 8 bits
Scan type                   : Progressive
Bits/(Pixel*Frame)          : 0.277
Stream size                 : 2.83 GiB (91%)
Title                       : Горда Мері / Proud Mary (2018) 720p [k.e.n & MegaPeer]
Writing library             : core 146 r2538 121396c
Encoding settings           : cabac=1 / ref=11 / deblock=1:-3:-3 / analyse=0x3:0x133 / me=umh / subme=11 / psy=1 / psy_rd=1.00:0.00 / mixed_ref=1 / me_range=32 / chroma_me=1 / trellis=2 / 8x8dct=1 / cqm=0 / deadzone=21,11 / fast_pskip=0 / chroma_qp_offset=-2 / threads=12 / lookahead_threads=2 / sliced_threads=0 / nr=0 / decimate=0 / interlaced=0 / bluray_compat=0 / constrained_intra=0 / bframes=11 / b_pyramid=2 / b_adapt=2 / b_bias=0 / direct=3 / weightb=1 / open_gop=0 / weightp=2 / keyint=240 / keyint_min=23 / scenecut=40 / intra_refresh=0 / rc=2pass / mbtree=0 / bitrate=4546 / ratetol=1.0 / qcomp=0.60 / qpmin=0 / qpmax=69 / qpstep=4 / cplxblur=20.0 / qblur=0.5 / ip_ratio=1.40 / pb_ratio=1.30 / aq=3:0.90
Language                    : English
Default                     : Yes
Forced                      : No

Audio
ID                          : 2
Format                      : AC-3
Format/Info                 : Audio Coding 3
Commercial name             : Dolby Digital
Codec ID                    : A_AC3
Duration                    : 1 h 29 min
Bit rate mode               : Constant
Bit rate                    : 448 kb/s
Channel(s)                  : 6 channels
Channel layout              : L R C LFE Ls Rs
Sampling rate               : 48.0 kHz
Frame rate                  : 31.250 FPS (1536 SPF)
Compression mode            : Lossy
Stream size                 : 285 MiB (9%)
Title                       : Original, 5.1 448 Kbps
Language                    : English
Service kind                : Complete Main
Default                     : Yes
Forced                      : No

Text #1
ID                          : 3
Format                      : UTF-8
Codec ID                    : S_TEXT/UTF8
Codec ID/Info               : UTF-8 Plain Text
Duration                    : 1 h 26 min
Bit rate                    : 59 b/s
Count of elements           : 912
Stream size                 : 37.8 KiB (0%)
Title                       : Ukr Full [Netflix]
Language                    : Ukrainian
Default                     : Yes
Forced                      : Yes

Text #2
ID                          : 4
Format                      : UTF-8
Codec ID                    : S_TEXT/UTF8
Codec ID/Info               : UTF-8 Plain Text
Duration                    : 1 h 21 min
Bit rate                    : 44 b/s
Count of elements           : 899
Stream size                 : 26.6 KiB (0%)
Language                    : English
Default                     : No
Forced                      : No

Menu
00:00:00.000                : en:Chapter 01
00:03:23.077                : en:Chapter 02
00:09:20.268                : en:Chapter 03
00:15:58.374                : en:Chapter 04
00:22:10.245                : en:Chapter 05
00:28:13.650                : en:Chapter 06
00:33:54.198                : en:Chapter 07
00:37:56.357                : en:Chapter 08
00:45:14.920                : en:Chapter 09
00:50:40.120                : en:Chapter 10
00:55:58.229                : en:Chapter 11
00:59:59.095                : en:Chapter 12
01:05:12.992                : en:Chapter 13
01:10:28.724                : en:Chapter 14
01:15:46.542                : en:Chapter 15
01:20:09.179                : en:Chapter 16




Джерело: &


 Трекер:    Зареєстрований   

Завантажити / скачати фільм українською



відео для новачків



 Зареєстрований:   2020-01-31 18:43
 Розмір:   3.11 GB 
 Оцінка фільму:   9.8/10 (Голосів: 6)
 ЗАЛИШАЙТЕСЬ ЯКОМОГА ДОВШЕ НА РОЗДАЧІ! ЗАВАНТАЖИВ САМ - ДАЙ ЗАВАНТАЖИТИ ІНШИМ!
   
Ваш часовий пояс: GMT + 2 Години

Нова тема   Відповісти