Планета скарбів / Treasure Planet (2002) 1080p H.265 Ukr/Eng | Sub Ukr/Eng

Нові коментарі

Нова тема   Відповісти
Автор Повідомлення
Anonymous 







2020-01-30 22:53  
Планета скарбів / Treasure Planet (2002) 1080p H.265 Ukr/Eng | Sub Ukr/Eng

Планета скарбів / Treasure Planet (2002) 1080p H.265 Ukr/Eng | Sub Ukr/Eng


Жанр: анімація, фантастика, пригодницький
Країна: США
Кінокомпанія: Walt Disney Animation Studios
Режисер: Рон Клементс, Джон Мушкер
Актори: Роско Лі Браун, Корі Бертон, Дейн А. Девіс, Джозеф Гордон-Левітт, Тоні Джей, Остін Мейджерс та інші.

Сюжет:
15-річний Джим Хоукінс вирушає на пошуки таємничої Планети Скарбів в компанії справжніх космічних піратів. Під керівництвом корабельного кока, кіборга Джона Сільвера, він стає вмілим «космоплавцем» і не раз рятує космічний галеон від найсерйозніших небезпек: чорних дірок, вибухів і космічних штормів.

Тривалість: 01:35:23
Якість:

Відео:
кодек: H.265 (HEVC)
розмір кадру: 1816 x 1080
бітрейт: 5 250 кб/с
бітова глибина: 10 біт

Увага! Перед завантаженням переконайтесь, що ваш пристрій відтворення (та/або ПЗ) підтримує H.265 (HEVC)

Аудіо # 1:
мова: українська
переклад: професійний дубльований
кодек: AC-3 2.0
бітрейт: 192 кб/с

Аудіо # 2:
мова: англійська
переклад: оригінал
кодек: 5.1
бітрейт: 1511 кб/с

Аудіо # 3:
мова: англійська
переклад: оригінал | коментарі
кодек: 2.0
бітрейт: 64 кб/с

Субтитри # 1: (Full)
мова: українська
тип: програмні (м'які)
формат: *.srt

Субтитри # 2-4: (Full, SDH, Commentary)
мова: англійська
тип: програмні (м'які)
формат: *.srt


Info
Код:
General
Unique ID                                : 317593955725449951683751211356438700696 (0xEEEE5EF68034D7869314CD3868F0A298)
Complete name                            : Treasure Planet (2002) 1080p H.265 [UKR_ENG] [Hurtom].
Format                                   :
Format version                           : Version 4
File size                                : 4.68 GiB
Duration                                 : 1 h 35 min
Overall bit rate                         : 7 021 kb/s
Movie name                               : Планета скарбів / Treasure Planet (2002)
Encoded date                             : UTC 2020-01-30 18:47:57
Writing application                      : v20.0.0 ('I Am The Sun') 64-bit
Writing library                          : libebml v1.3.5 + v1.4.8
Cover                                    : Yes
Attachments                              : Cover.jpg

Video
ID                                       : 1
Format                                   : HEVC
Format/Info                              : High Efficiency Video Coding
Format profile                           : Main [email protected]@High
Codec ID                                 : V_MPEGH/ISO/HEVC
Duration                                 : 1 h 35 min
Bit rate                                 : 5 250 kb/s
Width                                    : 1 816 pixels
Height                                   : 1 080 pixels
Display aspect ratio                     : 5:3
Frame rate mode                          : Constant
Frame rate                               : 23.976 (24000/1001) FPS
Color space                              : YUV
Chroma subsampling                       : 4:2:0
Bit depth                                : 10 bits
Bits/(Pixel*Frame)                       : 0.112
Stream size                              : 3.50 GiB (75%)
Title                                    : Планета скарбів / Treasure Planet (2002)
Writing library                          : x265 3.2.1+1-b5c86a64bbbe:[Windows][MSVC 1923][64 bit] 10bit
Encoding settings                        : cpuid=1111039 / frame-threads=3 / numa-pools=12 / wpp / no-pmode / no-pme / no-psnr / no-ssim / log-level=2 / input-csp=1 / input-res=1816x1080 / interlace=0 / total-frames=128322 / level-idc=41 / high-tier=1 / uhd-bd=0 / ref=5 / no-allow-non-conformance / no-repeat-headers / annexb / no-aud / no-hrd / info / hash=0 / no-temporal-layers / open-gop / min-keyint=23 / keyint=240 / gop-lookahead=0 / bframes=8 / b-adapt=2 / b-pyramid / bframe-bias=0 / rc-lookahead=60 / lookahead-slices=4 / scenecut=40 / radl=0 / no-splice / no-intra-refresh / ctu=32 / min-cu-size=8 / rect / amp / max-tu-size=32 / tu-inter-depth=4 / tu-intra-depth=4 / limit-tu=1 / rdoq-level=2 / dynamic-rd=0.00 / no-ssim-rd / signhide / no-tskip / nr-intra=0 / nr-inter=0 / no-constrained-intra / no-strong-intra-smoothing / max-merge=4 / limit-refs=2 / limit-modes / me=3 / subme=7 / merange=57 / temporal-mvp / no-hme / weightp / weightb / no-analyze-src-pics / deblock=-3:-3 / no-sao / no-sao-non-deblock / rd=6 / selective-sao=0 / no-early-skip / no-rskip / no-fast-intra / no-tskip-fast / no-cu-lossless / no-b-intra / no-splitrd-skip / rdpenalty=0 / psy-rd=2.00 / psy-rdoq=1.00 / no-rd-refine / no-lossless / cbqpoffs=0 / crqpoffs=0 / rc=crf / crf=20.0 / qcomp=0.60 / qpstep=4 / stats-write=0 / stats-read=0 / vbv-maxrate=50000 / vbv-bufsize=50000 / vbv-init=0.9 / crf-max=0.0 / crf-min=0.0 / ipratio=1.40 / pbratio=1.30 / aq-mode=1 / aq-strength=1.00 / no-cutree / zone-count=0 / no-strict-cbr / qg-size=32 / no-rc-grain / qpmax=69 / qpmin=0 / no-const-vbv / sar=1 / overscan=0 / videoformat=5 / range=0 / colorprim=1 / transfer=1 / colormatrix=1 / chromaloc=0 / display-window=0 / cll=0,0 / min-luma=0 / max-luma=1023 / log2-max-poc-lsb=8 / vui-timing-info / vui-hrd-info / slices=1 / no-opt-qp-pps / no-opt-ref-list-length-pps / no-multi-pass-opt-rps / scenecut-bias=0.05 / no-opt-cu-delta-qp / no-aq-motion / no-hdr / no-hdr-opt / no-dhdr10-opt / no-idr-recovery-sei / analysis-reuse-level=5 / scale-factor=0 / refine-intra=0 / refine-inter=0 / refine-mv=1 / refine-ctu-distortion=0 / no-limit-sao / ctu-info=0 / no-lowpass-dct / refine-analysis-type=0 / copy-pic=1 / max-ausize-factor=1.0 / no-dynamic-refine / no-single-sei / no-hevc-aq / no-svt / no-field / qp-adaptation-range=1.00
Default                                  : Yes
Forced                                   : No
Color range                              : Limited
Color primaries                          : BT.709
Transfer characteristics                 : BT.709
Matrix coefficients                      : BT.709

Audio #1
ID                                       : 2
Format                                   : AC-3
Format/Info                              : Audio Coding 3
Commercial name                          : Dolby Digital
Codec ID                                 : A_AC3
Duration                                 : 1 h 35 min
Bit rate mode                            : Constant
Bit rate                                 : 192 kb/s
Channel(s)                               : 2 channels
Channel layout                           : L R
Sampling rate                            : 48.0 kHz
Frame rate                               : 31.250 FPS (1536 SPF)
Compression mode                         : Lossy
Stream size                              : 131 MiB (3%)
Title                                    : / 2.0 Ch / 192 kbps / ПД / Novy Kanal / Adioz production
Language                                 : Ukrainian
Service kind                             : Complete Main
Default                                  : Yes
Forced                                   : Yes

Audio #2
ID                                       : 3
Format                                   :
Format/Info                              : Digital Theater Systems
Codec ID                                 : A_DTS
Duration                                 : 1 h 35 min
Bit rate mode                            : Constant
Bit rate                                 : 1 510 kb/s
Channel(s)                               : 6 channels
Channel layout                           : C L R Ls Rs LFE
Sampling rate                            : 48.0 kHz
Frame rate                               : 93.750 FPS (512 SPF)
Bit depth                                : 24 bits
Compression mode                         : Lossy
Stream size                              : 1.01 GiB (22%)
Title                                    : / 5.1 Ch / 1509 kbps / Original
Language                                 : English
Default                                  : No
Forced                                   : No

Audio #3
ID                                       : 4
Format                                   : LC SBR
Format/Info                              : Advanced Audio Codec Low Complexity with Spectral Band Replication
Commercial name                          : HE-
Format settings                          : Explicit
Codec ID                                 : A_AAC-2
Duration                                 : 1 h 35 min
Bit rate                                 : 64.0 kb/s
Channel(s)                               : 2 channels
Channel layout                           : L R
Sampling rate                            : 48.0 kHz
Frame rate                               : 23.438 FPS (2048 SPF)
Compression mode                         : Lossy
Delay relative to video                  : 31 ms
Stream size                              : 43.7 MiB (1%)
Title                                    : / 2.0 Ch / 192 kbps / Original / Commentary
Language                                 : English
Default                                  : No
Forced                                   : No

Text #1
ID                                       : 5
Format                                   : UTF-8
Codec ID                                 : S_TEXT/UTF8
Codec ID/Info                            : UTF-8 Plain Text
Duration                                 : 1 h 26 min
Bit rate                                 : 80 b/s
Count of elements                        : 1148
Stream size                              : 50.8 KiB (0%)
Title                                    : Full
Language                                 : Ukrainian
Default                                  : Yes
Forced                                   : No

Text #2
ID                                       : 6
Format                                   : UTF-8
Codec ID                                 : S_TEXT/UTF8
Codec ID/Info                            : UTF-8 Plain Text
Duration                                 : 1 h 31 min
Bit rate                                 : 59 b/s
Count of elements                        : 1482
Stream size                              : 40.0 KiB (0%)
Title                                    : Full
Language                                 : English
Default                                  : No
Forced                                   : No

Text #3
ID                                       : 7
Format                                   : UTF-8
Codec ID                                 : S_TEXT/UTF8
Codec ID/Info                            : UTF-8 Plain Text
Duration                                 : 1 h 35 min
Bit rate                                 : 109 b/s
Count of elements                        : 1482
Stream size                              : 76.2 KiB (0%)
Title                                    : SDH
Language                                 : English
Default                                  : No
Forced                                   : No

Text #4
ID                                       : 8
Format                                   : UTF-8
Codec ID                                 : S_TEXT/UTF8
Codec ID/Info                            : UTF-8 Plain Text
Duration                                 : 1 h 35 min
Bit rate                                 : 521 b/s
Count of elements                        : 1990
Stream size                              : 364 KiB (0%)
Title                                    : Commentary
Language                                 : English
Default                                  : No
Forced                                   : No

Menu #1
00:00:00.000                             : en:Opening Credits/A Young Boy's Dream
00:04:51.165                             : en:The Warning
00:12:09.103                             : en:Jim's Quest
00:16:40.332                             : en:The R.L.S. Legacy
00:20:34.149                             : en:John Silver
00:25:03.668                             : en:Setting Sail
00:30:41.923                             : en:A Mutiny in the Making
00:33:05.942                             : en:"I'm Still Here (Jim's Theme)"
00:36:43.534                             : en:A Star Gone Supernova
00:42:21.914                             : en:Getting In Too Deep
00:46:25.073                             : en:Jim Hears the Truth
00:50:51.131                             : en:Protecting the Map
00:55:04.467                             : en:B.E.N.
00:59:54.340                             : en:Bargaining for the Map
01:03:46.656                             : en:Sneaking Back on Ship
01:08:19.428                             : en:The Discovery
01:13:05.506                             : en:The Treasure
01:19:24.217                             : en:The Escape
01:23:57.407                             : en:Silver and Jim Say Goodbye
01:27:20.109                             : en:Going Home/End Credits

Menu #2
00:00:00.000                             : en:Chapter 1
00:04:51.165                             : en:Chapter 2
00:12:09.103                             : en:Chapter 3
00:16:40.332                             : en:Chapter 4
00:20:34.149                             : en:Chapter 5
00:25:03.668                             : en:Chapter 6
00:30:41.923                             : en:Chapter 7
00:33:05.942                             : en:Chapter 8
00:36:43.534                             : en:Chapter 9
00:42:21.914                             : en:Chapter 10
00:46:25.073                             : en:Chapter 11
00:50:51.131                             : en:Chapter 12
00:55:04.467                             : en:Chapter 13
00:59:54.340                             : en:Chapter 14
01:03:46.656                             : en:Chapter 15
01:08:19.428                             : en:Chapter 16
01:13:05.506                             : en:Chapter 17
01:19:24.217                             : en:Chapter 18
01:23:57.407                             : en:Chapter 19
01:27:20.109                             : en:Chapter 20
Світлини




Джерело: &
Особиста оцінка: 0 - не дивився


Срібний реліз (на рейтинг впливає 50% завантаженого)
 Трекер:    Зареєстрований   

Завантажити / скачати мультфільм українською



відео для новачків



 Зареєстрований:   2020-01-30 22:53
 Розмір:   4.68 GB 
 Оцінка мультфільму:   10/10 (Голосів: 3)
   
Інші релізи
Ваш часовий пояс: GMT + 2 Години

Нова тема   Відповісти