Рапунцель: Заплутана історія / Tangled (2010) 1080p H.265 Ukr/Eng | Sub Ukr/Eng

Нові коментарі

Нова тема   Відповісти
Автор Повідомлення
Anonymous 







2020-01-30 22:50  
Рапунцель: Заплутана історія / Tangled (2010) 1080p H.265 Ukr/Eng | Sub Ukr/Eng

Рапунцель: Заплутана історія / Tangled (2010) 1080p H.265 Ukr/Eng | Sub Ukr/Eng


Жанр: мюзикл, фентезі, мелодрама, комедія, сімейний
Країна: США
Кінокомпанія: Walt Disney Pictures
Режисер: Натан Грено, Байрон Говард
Актори: Менді Мур, Захарі Леві, Донна Мерфі, Рон Перлман, М. До. Гейні, Джефрі Тембор, Бред Геррет, Пол Ф. Томпкінс, Річард Кіл, Делані Роуз Стейн

Сюжет:
Якщо ви думаєте, що найцікавіше в ній - це 21 метр чарівного золотистого волосся, то ви помиляєтеся! Замкнута в башті і відчайдушно шукає пригод, Рапунцель вирішує використовувати Флінна в якості квитка у великий світ. Спочатку комічне викрадення, потім безневинний шантаж - і ось наші герої на волі. Разом з головними героями в авантюрну подорож вирушають бравий кінь-шукач Максимус, ручний хамелеон і зграя навіжених розбійників...

Тривалість: 01:40:57
Якість: (Російський відеоряд)

Відео:
кодек: H.265 (HEVC)
розмір кадру: 1920 x 1080
бітрейт: 4 802 кб/с
бітова глибина: 10 біт

Увага! Перед завантаженням переконайтесь, що ваш пристрій відтворення (та/або ПЗ) підтримує H.265 (HEVC)

Аудіо # 1:
мова: українська
переклад: професійний дубльований | Студія LeDoyen
кодек: AC-3 5.1
бітрейт: 640 кб/с

Аудіо # 2:
мова: англійська
переклад: оригінал
кодек: 5.1
бітрейт: 1510 кб/с

Субтитри # 1: (Full)
мова: українська
тип: програмні (м'які)
формат: *.srt

Субтитри # 2-3: (Full, SDH)
мова: англійська
тип: програмні (м'які)
формат: *.srt


Info
Код:
General
Unique ID                                : 163978460579398623481918938510922992904 (0x7B5D1A4D9731746A4BCA1D4B4A41CD08)
Complete name                            : Tangled (2010) 1080p H.265 [UKR_ENG] [Hurtom].
Format                                   :
Format version                           : Version 4
File size                                : 4.90 GiB
Duration                                 : 1 h 40 min
Overall bit rate                         : 6 954 kb/s
Movie name                               : Рапунцель: Заплутана історія / Tangled (2010)
Encoded date                             : UTC 2020-01-30 08:14:18
Writing application                      : v20.0.0 ('I Am The Sun') 64-bit
Writing library                          : libebml v1.3.5 + v1.4.8
Cover                                    : Yes
Attachments                              : Cover.jpg

Video
ID                                       : 1
Format                                   : HEVC
Format/Info                              : High Efficiency Video Coding
Format profile                           : Main [email protected]@High
Codec ID                                 : V_MPEGH/ISO/HEVC
Duration                                 : 1 h 40 min
Bit rate                                 : 4 802 kb/s
Width                                    : 1 920 pixels
Height                                   : 1 080 pixels
Display aspect ratio                     : 16:9
Frame rate mode                          : Constant
Frame rate                               : 23.976 (24000/1001) FPS
Color space                              : YUV
Chroma subsampling                       : 4:2:0
Bit depth                                : 10 bits
Bits/(Pixel*Frame)                       : 0.097
Stream size                              : 3.39 GiB (69%)
Title                                    : Рапунцель: Заплутана історія / Tangled (2010)
Writing library                          : x265 3.2.1+1-b5c86a64bbbe:[Windows][MSVC 1923][64 bit] 10bit
Encoding settings                        : cpuid=1111039 / frame-threads=3 / numa-pools=12 / wpp / no-pmode / no-pme / no-psnr / no-ssim / log-level=2 / input-csp=1 / input-res=1920x1080 / interlace=0 / total-frames=145227 / level-idc=41 / high-tier=1 / uhd-bd=0 / ref=5 / no-allow-non-conformance / no-repeat-headers / annexb / no-aud / no-hrd / info / hash=0 / no-temporal-layers / open-gop / min-keyint=23 / keyint=240 / gop-lookahead=0 / bframes=10 / b-adapt=2 / b-pyramid / bframe-bias=0 / rc-lookahead=60 / lookahead-slices=4 / scenecut=40 / radl=0 / no-splice / no-intra-refresh / ctu=32 / min-cu-size=8 / rect / amp / max-tu-size=32 / tu-inter-depth=4 / tu-intra-depth=4 / limit-tu=1 / rdoq-level=2 / dynamic-rd=0.00 / no-ssim-rd / signhide / no-tskip / nr-intra=0 / nr-inter=0 / no-constrained-intra / no-strong-intra-smoothing / max-merge=4 / limit-refs=2 / limit-modes / me=3 / subme=7 / merange=57 / temporal-mvp / no-hme / weightp / weightb / no-analyze-src-pics / deblock=-3:-3 / no-sao / no-sao-non-deblock / rd=6 / selective-sao=0 / no-early-skip / no-rskip / no-fast-intra / no-tskip-fast / no-cu-lossless / no-b-intra / no-splitrd-skip / rdpenalty=0 / psy-rd=2.00 / psy-rdoq=1.00 / no-rd-refine / no-lossless / cbqpoffs=0 / crqpoffs=0 / rc=crf / crf=20.0 / qcomp=0.65 / qpstep=4 / stats-write=0 / stats-read=0 / vbv-maxrate=50000 / vbv-bufsize=50000 / vbv-init=0.9 / crf-max=0.0 / crf-min=0.0 / ipratio=1.40 / pbratio=1.30 / aq-mode=1 / aq-strength=1.00 / no-cutree / zone-count=0 / no-strict-cbr / qg-size=32 / no-rc-grain / qpmax=69 / qpmin=0 / no-const-vbv / sar=1 / overscan=0 / videoformat=5 / range=0 / colorprim=1 / transfer=1 / colormatrix=1 / chromaloc=0 / display-window=0 / cll=0,0 / min-luma=0 / max-luma=1023 / log2-max-poc-lsb=8 / vui-timing-info / vui-hrd-info / slices=1 / no-opt-qp-pps / no-opt-ref-list-length-pps / no-multi-pass-opt-rps / scenecut-bias=0.05 / no-opt-cu-delta-qp / no-aq-motion / no-hdr / no-hdr-opt / no-dhdr10-opt / no-idr-recovery-sei / analysis-reuse-level=5 / scale-factor=0 / refine-intra=0 / refine-inter=0 / refine-mv=1 / refine-ctu-distortion=0 / no-limit-sao / ctu-info=0 / no-lowpass-dct / refine-analysis-type=0 / copy-pic=1 / max-ausize-factor=1.0 / no-dynamic-refine / no-single-sei / no-hevc-aq / no-svt / no-field / qp-adaptation-range=1.00
Default                                  : Yes
Forced                                   : No
Color range                              : Limited
Color primaries                          : BT.709
Transfer characteristics                 : BT.709
Matrix coefficients                      : BT.709

Audio #1
ID                                       : 2
Format                                   : AC-3
Format/Info                              : Audio Coding 3
Commercial name                          : Dolby Digital
Codec ID                                 : A_AC3
Duration                                 : 1 h 40 min
Bit rate mode                            : Constant
Bit rate                                 : 640 kb/s
Channel(s)                               : 6 channels
Channel layout                           : L R C LFE Ls Rs
Sampling rate                            : 48.0 kHz
Frame rate                               : 31.250 FPS (1536 SPF)
Compression mode                         : Lossy
Stream size                              : 462 MiB (9%)
Title                                    : / 5.1 Ch / 640 kbps / ПД / Blu-Ray / Студія LeDoyen
Language                                 : Ukrainian
Service kind                             : Complete Main
Default                                  : Yes
Forced                                   : Yes

Audio #2
ID                                       : 3
Format                                   :
Format/Info                              : Digital Theater Systems
Codec ID                                 : A_DTS
Duration                                 : 1 h 40 min
Bit rate mode                            : Constant
Bit rate                                 : 1 509 kb/s
Channel(s)                               : 6 channels
Channel layout                           : C L R Ls Rs LFE
Sampling rate                            : 48.0 kHz
Frame rate                               : 93.750 FPS (512 SPF)
Bit depth                                : 24 bits
Compression mode                         : Lossy
Delay relative to video                  : 11 ms
Stream size                              : 1.06 GiB (22%)
Title                                    : / 5.1 Ch / 1509 kbps / Original
Language                                 : English
Default                                  : No
Forced                                   : No

Text #1
ID                                       : 4
Format                                   : UTF-8
Codec ID                                 : S_TEXT/UTF8
Codec ID/Info                            : UTF-8 Plain Text
Duration                                 : 1 h 30 min
Bit rate                                 : 71 b/s
Count of elements                        : 924
Stream size                              : 47.2 KiB (0%)
Title                                    : Full
Language                                 : Ukrainian
Default                                  : Yes
Forced                                   : No

Text #2
ID                                       : 5
Format                                   : UTF-8
Codec ID                                 : S_TEXT/UTF8
Codec ID/Info                            : UTF-8 Plain Text
Duration                                 : 1 h 39 min
Bit rate                                 : 45 b/s
Count of elements                        : 920
Stream size                              : 33.1 KiB (0%)
Title                                    : Full
Language                                 : English
Default                                  : No
Forced                                   : No

Text #3
ID                                       : 6
Format                                   : UTF-8
Codec ID                                 : S_TEXT/UTF8
Codec ID/Info                            : UTF-8 Plain Text
Duration                                 : 1 h 40 min
Bit rate                                 : 49 b/s
Count of elements                        : 1265
Stream size                              : 36.2 KiB (0%)
Title                                    : SDH
Language                                 : English
Default                                  : No
Forced                                   : No

Menu
00:00:00.000                             : :The Lost Princess
00:08:20.291                             : :Mother Knows Best
00:15:42.608                             : :Meet Flynn Rider
00:24:40.562                             : :Making A Deal
00:34:41.496                             : :The Snuggly Duckling
00:42:30.214                             : :The Escape
00:50:25.272                             : :In The Woods
00:59:21.266                             : :The Best Day Of Your Life
01:10:34.981                             : :Betrayed
01:19:22.758                             : :The Rescue
01:25:21.366                             : :New Dream
01:31:20.225                             : :End Credits
Світлини




Джерело: &
Особиста оцінка: 0 - не дивився


 Трекер:    Зареєстрований   

Завантажити / скачати мультфільм українською



відео для новачків



 Зареєстрований:   2020-01-30 22:50
 Розмір:   4.9 GB 
 Оцінка мультфільму:   9.9/10 (Голосів: 11)
   
Інші релізи
   Рапунцель: Заплутана історія / Tangled (2010) UHD Remux 4K 2160p HDR H.265 Ukr/Eng | Sub Ukr/Eng RoMeL  8 / 0   44.24 GB   2020-12-01 17:40 
   Рапунцель: Заплутана історія / Tangled (2010) 1080p Ukr/Eng | Український відеоряд AlexPechkin  16 / 0   6.47 GB   2020-04-16 22:55 
   Рапунцель: Заплутана історія / Tangled (2010) 1080p 3D [Half OverUnder] Ukr/Eng | Sub Ukr/Eng igor911  4 / 0   8.96 GB   2015-01-01 10:27 
   Рапунцель: Заплутана історія / Tangled (2010) 720p Ukr/Eng | Sub Ukr/Eng braveboy  24 / 1   4.36 GB   2013-03-05 05:30 
   Рапунцель: Заплутана історія / Tangled (2010) AVC | Sub Ukr/Eng | Український відеоряд FaB0SS  12 / 0   1.45 GB   2012-07-26 16:49 
   Рапунцель: Заплутана історія / Tangled (2010) | Український відеоряд FaB0SS  23 / 0   1.45 GB   2012-07-20 12:49 
   Рапунцель: Заплутана історія / Tangled (2010) DVD 9 | Ліцензія Beffis  2 / 0   6.2 GB   2012-03-15 11:44 
   Рапунцель: Заплутана історія / Tangled (2010) Blu-Ray 3D Multi | Sub Multi [Blu-Ray 3D] PhilosophUA  0 / 0   34.49 GB   2011-04-06 08:24 
   Рапунцель: Заплутана історія / Tangled (2010) Ukr/Eng | Sub Ukr/Eng karvai0  11 / 0   2.18 GB   2011-03-19 12:02 
   Рапунцель: Заплутана історія / Tangled (2010) 1080p Ukr/Eng | Sub Ukr/Eng Denoks  16 / 0   7.51 GB   2011-03-18 14:55 
svoboda181 
VIP


З нами з: 06.01.10
Востаннє: 16.12.20
Повідомлень: 267

2020-01-31 10:38  
Anonymous написано:
Якість: (Російський відеоряд)

Не буду записувати файл, шукатиму оригінальний, не спотворений ворогами. Дякую за попередження в описі. Дивно, що майже ніхто таке не робить й адміністрація з модераторами, мовчить, нікого не карає за приховану інформацію щодо русифікованого відеоряду та поляризації російського на Толоці.

Ваш часовий пояс: GMT + 2 Години

Нова тема   Відповісти