Зворотній відлік / Countdown (2019) Remux 1080p Ukr/Eng | Sub Eng

Нові коментарі

Нова тема   Відповісти
Автор Повідомлення
Anonymous 







2020-01-30 22:53  
Зворотній відлік / Countdown (2019) Remux 1080p Ukr/Eng | Sub Eng


«Смерть? У неї теж є свій додаток»



Жанр: жахи, трилер
Країна: США



Кінокомпанія: Boies / Schiller Film Group, Wrigley Pictures
Режисер: Джастін Дек
Актори: Елізабет Леіл, Чарлі МакДермотт, Пітер Фачінеллі, Таліта Бейтман, Тічіна Арнольд, Лана МакКіссек, Енн Вінтерс

Сюжет:
У світі з'явився новий незвичайний і дуже популярний додаток. Він може обчислити... точну дату смерті людини. Щоб бути в тренді, Квін вирішує встановити додаток на свій телефон. Однак програма повідомляє, що дівчині залишилося жити менше трьох днів. Поки час ще не минув, Квін повинна знайти спосіб врятувати своє життя і розгадати таємницю додатку...


Тривалість: 01:30:40
Якість: Remux 1080p

Відео:
кодек:
розмір кадру: 1920x1080
бітрейт: 26,4 Мб/с

Аудіо # 1:
мова: українська
кодек: 2.0 (стерео)
бітрейт: 192 кб/с
Інформація про дубляж
Переклад: Галина Мороз
Редактор: Юлія Когут
Режисери дубляжу: Олександр Єфімов та Марія Почайкіна
Звукорежисер перезапису: Олександр Єфімов
Ролі дублювали: Вікторія Москаленко, Михайло Тишин, Дмитро Гаврилов, Єлизавета Зіновенко, Павло Скороходько, Олена Узлюк, Андрій Альохін, Дмитро Завадський, Юлія Перенчук, Катерина Буцька, Антоніна Хижняк, Євген Сардаров, Андрій Федінчик, Дмитро Терещук, Ярослав Чорненький та інші.

Фільм дубльовано студією ААА-sound у 2019 році на замовлення компанії "Кіноманія".
Аудіо # 2:
мова: англійська
переклад: оригінал
кодек: -HD MA 5.1
бітрейт: 3363 кб/с

Субтитри:
мова: англійська
тип: програмні (м'які)
формат: *.srt
Info
Код:

General
Complete name                            : Countdown (2019) Remux 1080p [ukr,eng] [ViDeO_Hurtom].
Format                                   :
Format version                           : Version 4
File size                                : 19.0 GiB
Duration                                 : 1 h 30 min
Overall bit rate mode                    : Variable
Overall bit rate                         : 30.0 Mb/s
Encoded date                             : UTC 2020-01-30 18:48:38
Writing application                      : v30.1.0 ('Forever And More') 64-bit
Writing library                          : libebml v1.3.6 + v1.4.9
Cover                                    : Yes
Attachments                              : cover.jpg

Video
ID                                       : 1
Format                                   : AVC
Format/Info                              : Advanced Video Codec
Format profile                           : [email protected]
Format settings                          : CABAC / 2 Ref Frames
Format settings, CABAC                   : Yes
Format settings, RefFrames               : 2 frames
Codec ID                                 : V_MPEG4/ISO/AVC
Duration                                 : 1 h 30 min
Bit rate mode                            : Variable
Bit rate                                 : 26.4 Mb/s
Width                                    : 1 920 pixels
Height                                   : 1 080 pixels
Display aspect ratio                     : 16:9
Frame rate mode                          : Constant
Frame rate                               : 23.976 (24000/1001) FPS
Color space                              : YUV
Chroma subsampling                       : 4:2:0
Bit depth                                : 8 bits
Scan type                                : Progressive
Bits/(Pixel*Frame)                       : 0.532
Stream size                              : 16.7 GiB (88%)
Language                                 : English
Default                                  : Yes
Forced                                   : No

Audio #1
ID                                       : 2
Format                                   : AC-3
Format/Info                              : Audio Coding 3
Commercial name                          : Dolby Digital
Codec ID                                 : A_AC3
Duration                                 : 1 h 30 min
Bit rate mode                            : Constant
Bit rate                                 : 192 kb/s
Channel(s)                               : 2 channels
Channel layout                           : L R
Sampling rate                            : 48.0 kHz
Frame rate                               : 31.250 FPS (1536 SPF)
Bit depth                                : 16 bits
Compression mode                         : Lossy
Stream size                              : 125 MiB (1%)
Title                                    : 2.0 | 192
Language                                 : Ukrainian
Service kind                             : Complete Main
Default                                  : Yes
Forced                                   : No

Audio #2
ID                                       : 3
Format                                   : XLL
Format/Info                              : Digital Theater Systems
Commercial name                          : -HD Master Audio
Codec ID                                 : A_DTS
Duration                                 : 1 h 30 min
Bit rate mode                            : Variable
Bit rate                                 : 3 363 kb/s
Channel(s)                               : 6 channels
Channel layout                           : C L R Ls Rs LFE
Sampling rate                            : 48.0 kHz
Frame rate                               : 93.750 FPS (512 SPF)
Bit depth                                : 24 bits
Compression mode                         : Lossless
Stream size                              : 2.13 GiB (11%)
Title                                    : -HD MA, 5.1 | 3363
Language                                 : English
Default                                  : No
Forced                                   : No

Text
ID                                       : 4
Format                                   : UTF-8
Codec ID                                 : S_TEXT/UTF8
Codec ID/Info                            : UTF-8 Plain Text
Duration                                 : 1 h 23 min
Bit rate                                 : 53 b/s
Count of elements                        : 1096
Stream size                              : 32.7 KiB (0%)
Title                                    : Full
Language                                 : English
Default                                  : No
Forced                                   : No

Menu
00:00:00.000                             : en:Глава 01
00:03:14.694                             : en:Глава 02
00:08:07.028                             : en:Глава 03
00:14:14.937                             : en:Глава 04
00:18:02.999                             : en:Глава 05
00:24:23.462                             : en:Глава 06
00:31:47.989                             : en:Глава 07
00:35:37.552                             : en:Глава 08
00:39:21.943                             : en:Глава 09
00:44:15.736                             : en:Глава 10
00:47:26.177                             : en:Глава 11
00:50:52.925                             : en:Глава 12
00:55:49.304                             : en:Глава 13
00:59:32.027                             : en:Глава 14
01:07:01.059                             : en:Глава 15
01:09:26.496                             : en:Глава 16
01:15:02.456                             : en:Глава 17
01:20:53.891                             : en:Глава 18
01:22:54.261                             : en:Глава 19
01:24:05.165                             : en:Глава 20
Скріншоти




Джерело:
Особиста оцінка: 0 - не дивився


Золотий реліз (завантажене не впливає на рейтинг)
 Трекер:    Зареєстрований   

Завантажити / скачати фільм українською



відео для новачків



 Зареєстрований:   2020-01-30 22:53
 Розмір:   19 GB 
 Оцінка фільму:   9.5/10 (Голосів: 10)
   
Інші релізи
   Зворотній відлік / Countdown (2019) antik_2008  6 / 0   1.22 GB   2020-01-30 20:50 
   Зворотній відлік / Countdown (2019) 1080p Ukr/Eng | Sub Eng staf777  11 / 0   7.49 GB   2020-01-29 17:00 
   Зворотній відлік / Countdown (2019) 720p Ukr/Eng | Sub Eng staf777  9 / 0   3.69 GB   2020-01-29 15:30 
   Зворотній відлік / Countdown (2019) AVC Ukr/Eng | Sub Eng 11FrYkT  11 / 4   1.38 GB   2020-01-29 13:45 
MakRA 
VIP


З нами з: 11.11.18
Востаннє: 22.09.20
Повідомлень: 1119

2020-02-02 18:48  
Подивилися. Сподобався фільм і оригінальною ідеєю і якістю дубляжа (правда, все ж таки декілька русизмів проскочило)
Після цього фільму https://toloka.to/t107212, "Зворотній відлік" перший містичний жахастик, який справив потужне враження.

Ваш часовий пояс: GMT + 2 Години

Нова тема   Відповісти