Перехрестя / Crossroads (2002) 720p Ukr/Eng | Sub Eng

Нові коментарі

Нова тема   Відповісти
Автор Повідомлення
Anonymous 







2020-01-30 22:01  
Перехрестя / Crossroads (2002) 720p Ukr/Eng | Sub Eng

Перехрестя / Crossroads (2002) 720p Ukr/Eng | Sub Eng


Жанр: комедія, драма, музичний
Країна: США



Кінокомпанія: Fuzzy Bunny Films (I), MTV Films, Paramount Pictures
Режисер: Тамра Девіс / Tamra Davis
Актори: Брітні Спірс / Britney Spears, Енсон Маунт / Anson Mount, Зої Салдана / Zoe Saldana, Тарін Меннінг / Taryn Manning, Ден Ейкройд / Dan Aykroyd, Кім Кеттрел / Kim Cattrall, Джастін Лонг / Justin Long, Беверлі Джонсон / Beverly Johnson, Лазні Турпін / Bahni Turpin, Кул Мо Ді / Kool Moe Dee та інші

Сюжет:
Це історія про трьох подружок Люсі, Кіт і Мімі. У 10 років дівчата закопали в яму коробку з бажаннями. Кіт загадала бути нареченою, Люсі загадала зустрітися зі своєю мамою і Мімі загадала виїхати жити ближче до океану. Але одного разу вони поїхали в Лос-Анджелес на пісенний конкурс, де і спробували здійснити свої мрії.


Тривалість: 01:23:30
Якість: 720p
Відео:
кодек:
розмір кадру: 1280x718
бітрейт: 3977 кб/с

Аудіо # 1:
мова: українська
переклад: багатоголосий закадровий
кодек: 2.0
бітрейт: 192 кб/с

Аудіо # 2:
мова: англійська
переклад: оригінал
кодек: 5.1
бітрейт: 384 кб/с

Субтитри:
мова: англійська
тип: програмні (м'які)
формат: *.srt
Info
General
Unique ID : 213450909352718956514801212306334086488 (0xA095265927DED9B4A1237CDC3EFEF558)
Complete name : H:\Toloka\2020\Crossroads (2002) 720p.
Format :
Format version : Version 4
File size : 3.03 GiB
Duration : 1 h 33 min
Overall bit rate : 4 645 kb/s
Encoded date : UTC 2020-01-30 18:57:49
Writing application : v6.1.0 ('Old Devil') built on Mar 4 2013 09:10:42
Writing library : libebml v1.3.0 + v1.4.0

Video
ID : 1
Format : AVC
Format/Info : Advanced Video Codec
Format profile : [email protected]
Format settings : 2 Ref Frames
Format settings, CABAC : No
Format settings, RefFrames : 2 frames
Codec ID : V_MPEG4/ISO/AVC
Duration : 1 h 33 min
Bit rate : 3 977 kb/s
Width : 1 280 pixels
Height : 718 pixels
Display aspect ratio : 16:9
Frame rate mode : Constant
Frame rate : 23.976 FPS
Color space : YUV
Chroma subsampling : 4:2:0
Bit depth : 8 bits
Scan type : Progressive
Bits/(Pixel*Frame) : 0.180
Stream size : 2.60 GiB (86%)
Title : Crossroads [2002] 720p
Language : English
Default : Yes
Forced : Yes
Color range : Limited
Color primaries : BT.709
Transfer characteristics : BT.709
Matrix coefficients : BT.709

Audio #1
ID : 2
Format : AC-3
Format/Info : Audio Coding 3
Commercial name : Dolby Digital
Codec ID : A_AC3
Duration : 1 h 33 min
Bit rate mode : Constant
Bit rate : 192 kb/s
Channel(s) : 2 channels
Channel layout : L R
Sampling rate : 48.0 kHz
Frame rate : 31.250 FPS (1536 SPF)
Bit depth : 16 bits
Compression mode : Lossy
Stream size : 128 MiB (4%)
Title : UKR (Kino)
Language : Ukrainian
Service kind : Complete Main
Default : Yes
Forced : Yes

Audio #2
ID : 3
Format : AC-3
Format/Info : Audio Coding 3
Commercial name : Dolby Digital
Codec ID : A_AC3
Duration : 1 h 33 min
Bit rate mode : Constant
Bit rate : 384 kb/s
Channel(s) : 6 channels
Channel layout : L R C LFE Ls Rs
Sampling rate : 48.0 kHz
Frame rate : 31.250 FPS (1536 SPF)
Bit depth : 16 bits
Compression mode : Lossy
Stream size : 257 MiB (8%)
Title : ENG
Language : English
Service kind : Complete Main
Default : No
Forced : No

Text
ID : 4
Format : UTF-8
Codec ID : S_TEXT/UTF8
Codec ID/Info : UTF-8 Plain Text
Title : ENG
Language : English
Default : No
Forced : No
Скріншоти




За доріжку подяка п.: dvorsky, taraskill1
Особиста подяка пану denixx за надану матеріальну допомогу на підтримку цього і майбутніх релізів.
Джерело:


Срібний реліз (на рейтинг впливає 50% завантаженого)
 Трекер:    Зареєстрований   

Завантажити / скачати фільм українською



відео для новачків



 Зареєстрований:   2020-01-30 22:01
 Розмір:   3.03 GB 
 Оцінка фільму:   8.2/10 (Голосів: 5)
   
Інші релізи
   Перехрестя / Crossroads (2002) taraskill1  2 / 0   1.46 GB   2015-05-16 14:03 
Jani307 
Свій


З нами з: 09.06.14
Востаннє: 28.09.20
Повідомлень: 132

2020-01-30 23:01  
І як вдалося досягти такого рейтингу? Навіть кілька акторів є іменитих.
igor911 
Модератор відео


З нами з: 18.01.08
Востаннє: 29.09.20
Повідомлень: 15007

2020-01-31 09:37  
Треба замінити скріншоти, у розділі HD вони повинні бути у форматі png.
Ваш часовий пояс: GMT + 2 Години

Нова тема   Відповісти