[ЗБІР КОШТІВ] Мітичний Квест: Бенкет круків (Сезон 1, Серії 1 з 9) / Mythic Quest: Raven's Banquet (Season 1, Episodes 1 of 9) (2020) 1080р

Нові коментарі

Нова тема   Відповісти
Автор Повідомлення
AdrianZP 
VIP


З нами з: 28.08.14
Востаннє: 24.02.20
Повідомлень: 316

2020-01-30 18:08  
[ЗБІР КОШТІВ] Мітичний Квест: Бенкет круків (Сезон 1, Серії 1 з 9) / Mythic Quest: Raven's Banquet (Season 1, Episodes 1 of 9) (2020) 1080р


На озвучення проходить ЗБІР КОШТІВ


[ЗБІР КОШТІВ] Мітичний Квест: Бенкет круків (Сезон 1, Серії 1 з 9) / Mythic Quest: Raven's Banquet (Season 1, Episodes 1 of 9) (2020) 1080р


Жанр: Ситком
Країна: США



Кінокомпанія: Apple
Режисер: Роб МакЕлгенні, Меґан Ґанц, Чарлі Дей
Актори: Роб МакЕлгенні, Шарлотта Нікдао, Денні Пуді та інші

Сюжет:
Серіал розповість нам про компанію де талановиті розробники творять найкрутіше розширення для відео гри «Мітичний Квест: Бенкет Круків». Звісно, що не все так ідеально та стаються конфлікти, які мають бути вирішені, адже всі вони бажають щоб гра була крута. Цікавий бекґраунд приємно вразить любителів відеоігор й не тільки!


Тривалість: 1 серія: ~30 хв. (цілком серій: 1 з 9)
Перелік серій
1. Пілот
???
Якість:
Відео:
кодек:
розмір кадру: 1920 х 1080
бітрейт: ~5500 кб/с

Аудіо # 1:
мова: українська
переклад: багатоголосий закадровий | Озвучка AdrianZP
кодек: 5.1
бітрейт: 640 кб/с

Аудіо # 2:
мова: англійська
переклад: оригінал
кодек: 5.1
бітрейт: 640 кб/с

Субтитри:
мова: українська | + Редакція
тип: програмні (м'які)
формат: *.srt

Субтитри:
мова: англійська
тип: програмні (м'які)
формат: *.srt
Info
Format :
Format version : Version 4 / Version 2
File size : 1.31 GiB
Duration : 28 min 40 s
Overall bit rate : 6 532 kb/s
Encoded date : UTC 2020-02-09 19:43:12
Writing application : v9.4.0 ('Knurl') 64bit
Writing library : libebml v1.3.4 + v1.4.5
Cover : Yes
Attachments : Cover-min.jpg

Video
ID : 1
Format : AVC
Format/Info : Advanced Video Codec
Format profile : [email protected]
Format settings, CABAC : Yes
Format settings, ReFrames : 3 frames
Codec ID : V_MPEG4/ISO/AVC
Duration : 28 min 40 s
Bit rate mode : Constant
Bit rate : 5 500 kb/s
Width : 1 920 pixels
Height : 1 080 pixels
Display aspect ratio : 16:9
Frame rate mode : Constant
Frame rate : 23.976 (24000/1001) FPS
Color space : YUV
Chroma subsampling : 4:2:0
Bit depth : 8 bits
Scan type : Progressive
Bits/(Pixel*Frame) : 0.111
Stream size : 1.05 GiB (80%)
Language : English
Default : Yes
Forced : No
Color range : Limited
Color primaries : BT.709
Transfer characteristics : BT.709
Matrix coefficients : BT.709

Audio #1
ID : 2
Format : AC-3
Format/Info : Audio Coding 3
Mode extension : CM (complete main)
Format settings, Endianness : Big
Codec ID : A_AC3
Duration : 28 min 40 s
Bit rate mode : Constant
Bit rate : 640 kb/s
Channel(s) : 6 channels
Channel positions : Front: L C R, Side: L R, LFE
Sampling rate : 48.0 kHz
Frame rate : 31.250 FPS (1536 spf)
Compression mode : Lossy
Delay relative to video : -5 ms
Stream size : 131 MiB (10%)
Title : Озвучка AdrianZP
Language : Ukrainian
Default : Yes
Forced : No

Audio #2
ID : 3
Format : AC-3
Format/Info : Audio Coding 3
Mode extension : CM (complete main)
Format settings, Endianness : Big
Codec ID : A_AC3
Duration : 28 min 40 s
Bit rate mode : Constant
Bit rate : 640 kb/s
Channel(s) : 6 channels
Channel positions : Front: L C R, Side: L R, LFE
Sampling rate : 48.0 kHz
Frame rate : 31.250 FPS (1536 spf)
Compression mode : Lossy
Delay relative to video : -5 ms
Stream size : 131 MiB (10%)
Language : English
Default : No
Forced : No

Text #1
ID : 4
Format : UTF-8
Codec ID : S_TEXT/UTF8
Codec ID/Info : UTF-8 Plain Text
Duration : 27 min 21 s
Bit rate : 142 b/s
Count of elements : 531
Stream size : 28.6 KiB (0%)
Title : Офіційні від Apple (Додатково вичитані "Озвучка AdrianZP")
Language : Ukrainian
Default : No
Forced : No

Text #2
ID : 5
Format : UTF-8
Codec ID : S_TEXT/UTF8
Codec ID/Info : UTF-8 Plain Text
Duration : 27 min 16 s
Bit rate : 107 b/s
Count of elements : 522
Stream size : 21.5 KiB (0%)
Title : English
Language : English
Default : No
Forced : No
Скріншоти




Озвучення виконано:
Переклад: Взятий за основу від
Редакція: Snovyda
Ролі озвучили: Snovyda, MariAm, AdrianZP, Dakshina_Kali та Rendaros
Робота зі звуком: AdrianZP

ТРЕЙЛЕР



ПІДТРИМАЙТЕ РЕДАГУВАННЯ ТА ОЗВУЧЕННЯ СЕРІАЛУ!
Станом 23.02.2020 на наступні 8 серій усього зібрано 1 000 з 8 800 грн.
На 2 серію зібрано 1 000 з 1 100 грн



Особиста оцінка: 10 - Перша серія порадувала, подивимося, що буде далі!


Авторський реліз (завантажувати можна без реєстрації)
 Трекер:    Зареєстрований   

Завантажити / скачати серіал українською



відео для новачків



 Зареєстрований:   2020-02-10 19:11
 Розмір:   1.31 GB 
 Оцінка серіалу:   8/10 (Голосів: 5)
   
bot 
робот


З нами з: 30.09.07
Востаннє: 26.05.05
Повідомлень: 23390

2020-01-30 18:08  
Тему перенесено з Серіали в HD до форуму Анонси релізів


AdrianZP

Bohonek 
Свій


З нами з: 21.12.12
Востаннє: 25.02.20
Повідомлень: 69

2020-01-30 19:08  
з постера вже видно, що якась мультикультурна толерантна дурня
AdrianZP 
VIP


З нами з: 28.08.14
Востаннє: 24.02.20
Повідомлень: 316

2020-02-10 19:10  
ДОДАНО 1 СЕРІЮ!
Озвучення будемо робити по наявним українським субтитрам від яблучних, але з редакцією та власною адаптацією.


Bohonek написано:
з постера вже видно

Серіал точно не "дурня" та сподобається тим хто знайомий хоч трохи з ігровою індустрією відеоігор.
Доволі цікаво поглянути на те, як приблизно відбувається процес розробки гри, які конфлікти можуть виникати між людьми, бо все це творчий процес.

Перша серія склала враження легкого серіалу, який приємно дивитися та не вибухають мізки.

bot 
робот


З нами з: 30.09.07
Востаннє: 26.05.05
Повідомлень: 23390

2020-02-10 19:11  
Тему перенесено з Анонси релізів до форуму Серіали в HD


AdrianZP

Anyfix 
Новенький


З нами з: 22.01.18
Востаннє: 23.02.20
Повідомлень: 2

2020-02-16 11:44  
Чудовий серіал. Подивився вже всі серії в оригіналі. Дуже веселий. Нагадує silicon valley але легше і простіше.
Ваш часовий пояс: GMT + 2 Години

Нова тема   Відповісти