Халепа / Trouble (2019) 1080p Ukr/Eng

Нові коментарі

Нова тема   Відповісти
Автор Повідомлення
staf777 
Відео Гуртом - підтримка та поширення
Відео Гуртом - підтримка та поширення


З нами з: 16.11.16
Востаннє: 03.03.21
Повідомлень: 5083

2020-01-30 10:06  
Халепа / Trouble (2019) 1080p


Жанр: комедія, мультфільм, сімейний
Країна: Канада, США, Кайманові острови



Кінокомпанія: 3QU Media, Cinesite Animation, Storyoscopic Films
Режисер: Кевін Джонсон
Ролі озвучують: Кевін Чемберлін, Колбі Лопес, Джейсон Мраз, Шер Ру, Біг Шон, Снуп Догг, Марісса Джерет Вінокур

Сюжет:
Спадкоємець мільйонного статку і купи невдячних родичів, розпещений пес на ім'я Халепа вийшов із зони комфорту і опинився на вулиці. Тепер він мріє повернутись додому. Для цього йому потрібно знайти нових друзів, позбутися настирливих білок і скинути з хвоста запеклого мисливця. Королівські канікули починаються.


Тривалість: 01:27:40
Якість: 1080p

Відео:
кодек:
розмір кадру: 1920 x 1038
бітрейт: 11 Мб/с

Аудіо # 1:
мова: українська
переклад: професійний дубльований
кодек: 5.1
бітрейт: 384 кб/с

Аудіо # 2:
мова: англійська
переклад: оригінал
кодек: 5.1
бітрейт: 640 кб/с

Збережено оригінальні розділи, як на Blu-ray
Info
Код:
General
Complete name                            : Trouble (2019) 1080p [Ukr_Eng] [Video_Hurtom].
Format                                   :
Format version                           : Version 4
File size                                : 7.36 GiB
Duration                                 : 1 h 27 min
Overall bit rate                         : 12.0 Mb/s
Movie name                               : Халепа / Trouble (2019)
Encoded date                             : UTC 2020-04-16 10:19:09
Writing application                      : v30.1.0 ('Forever And More') 64-bit
Writing library                          : libebml v1.3.6 + v1.4.9
Cover                                    : Yes
Attachments                              : cover.jpg

Video
ID                                       : 1
Format                                   : AVC
Format/Info                              : Advanced Video Codec
Format profile                           : [email protected]
Format settings                          : CABAC / 4 Ref Frames
Format settings, CABAC                   : Yes
Format settings, RefFrames               : 4 frames
Codec ID                                 : V_MPEG4/ISO/AVC
Duration                                 : 1 h 27 min
Bit rate                                 : 11.0 Mb/s
Width                                    : 1 920 pixels
Height                                   : 1 038 pixels
Display aspect ratio                     : 1.85:1
Frame rate mode                          : Constant
Frame rate                               : 24.000 FPS
Color space                              : YUV
Chroma subsampling                       : 4:2:0
Bit depth                                : 8 bits
Scan type                                : Progressive
Bits/(Pixel*Frame)                       : 0.230
Stream size                              : 6.73 GiB (91%)
Title                                    : Encoded by seleZen
Writing library                          : core 142 r2431+42 c69a006 tMod [[email protected] X86_64]
Encoding settings                        : cabac=1 / ref=4 / deblock=1:-2:-2 / analyse=0x3:0x133 / me=umh / subme=10 / psy=1 / fade_compensate=0.00 / psy_rd=1.00:0.00 / mixed_ref=1 / me_range=32 / chroma_me=1 / trellis=2 / 8x8dct=1 / cqm=0 / deadzone=21,11 / fast_pskip=0 / chroma_qp_offset=-2 / threads=24 / lookahead_threads=4 / sliced_threads=0 / nr=0 / decimate=0 / interlaced=0 / bluray_compat=0 / constrained_intra=0 / fgo=0 / bframes=8 / b_pyramid=2 / b_adapt=2 / b_bias=0 / direct=3 / weightb=1 / open_gop=0 / weightp=2 / keyint=240 / keyint_min=24 / scenecut=40 / intra_refresh=0 / rc_lookahead=50 / rc=2pass / mbtree=0 / bitrate=11000 / ratetol=1.0 / qcomp=0.60 / qpmin=0:0:0 / qpmax=51:51:51 / qpstep=4 / cplxblur=20.0 / qblur=0.5 / vbv_maxrate=50000 / vbv_bufsize=62500 / nal_hrd=none / filler=0 / ip_ratio=1.40 / pb_ratio=1.30 / aq=3:0.80 / aq-sensitivity=10.00 / aq-factor=1.00:1.00:1.00 / aq2=0 / aq3=0
Language                                 : English
Default                                  : Yes
Forced                                   : No

Audio #1
ID                                       : 2
Format                                   : AC-3
Format/Info                              : Audio Coding 3
Commercial name                          : Dolby Digital
Codec ID                                 : A_AC3
Duration                                 : 1 h 27 min
Bit rate mode                            : Constant
Bit rate                                 : 384 kb/s
Channel(s)                               : 6 channels
Channel layout                           : L R C LFE Ls Rs
Sampling rate                            : 48.0 kHz
Frame rate                               : 31.250 FPS (1536 SPF)
Bit depth                                : 16 bits
Compression mode                         : Lossy
Stream size                              : 240 MiB (3%)
Title                                    : 5.1 | 384
Language                                 : Ukrainian
Service kind                             : Complete Main
Default                                  : Yes
Forced                                   : No

Audio #2
ID                                       : 3
Format                                   : AC-3
Format/Info                              : Audio Coding 3
Commercial name                          : Dolby Digital
Codec ID                                 : A_AC3
Duration                                 : 1 h 27 min
Bit rate mode                            : Constant
Bit rate                                 : 640 kb/s
Channel(s)                               : 6 channels
Channel layout                           : L R C LFE Ls Rs
Sampling rate                            : 48.0 kHz
Frame rate                               : 31.250 FPS (1536 SPF)
Bit depth                                : 16 bits
Compression mode                         : Lossy
Stream size                              : 401 MiB (5%)
Title                                    : 5.1 | 640
Language                                 : English
Service kind                             : Complete Main
Default                                  : No
Forced                                   : No

Menu
00:00:00.000                             : en:Chapter 01
00:12:11.250                             : en:Chapter 02
00:23:03.292                             : en:Chapter 03
00:30:35.542                             : en:Chapter 04
00:43:59.792                             : en:Chapter 05
00:54:18.958                             : en:Chapter 06
01:06:18.000                             : en:Chapter 07
01:18:34.583                             : en:Chapter 08




Джерело: &
Особиста оцінка: 0 - не дивився


 Трекер:    Зареєстрований   

Завантажити / скачати мультфільм українською



відео для новачків



 Зареєстрований:   2020-04-16 12:43
 Розмір:   7.36 GB 
 Оцінка мультфільму:   9.3/10 (Голосів: 26)
   
Інші релізи
   Халепа / Trouble (2019) Jatx_11  12 / 0   1.42 GB   2020-05-13 13:36 
   Халепа / Trouble (2019) AVC Ukr/Eng 11FrYkT  31 / 0   1.7 GB   2020-04-17 18:33 
   Халепа / Trouble (2019) Remux 1080p Ukr/Eng antik_2008  6 / 0   15.69 GB   2020-04-16 12:45 
   Халепа / Trouble (2019) 720p Ukr/Eng antik_2008  12 / 0   3.99 GB   2020-04-16 11:35 
bot 
робот


З нами з: 30.09.07
Востаннє: 26.05.05
Повідомлень: 27299

2020-01-30 11:23  
Тему перенесено з Анонси релізів до форуму Мультфільми в HD


staf777

Serg-ua 
Новенький


З нами з: 28.06.09
Востаннє: 26.02.21
Повідомлень: 3

2020-02-02 21:04  
ПРикольнющиий мультяк
TheLonger 
Новенький


З нами з: 26.05.17
Востаннє: 03.03.21
Повідомлень: 13

2020-03-27 22:41  
Чесно кажучи чомусь думав що мені не сподобається. А по факту із дружиною дивились краще аніж син Happy Для сімейного перегляду.
antik_2008 
Релізер і модератор відео


З нами з: 20.10.08
Востаннє: 03.03.21
Повідомлень: 4701

2020-04-16 12:44  
Торент файл оновлено. Заміна аудіо на 5.1 , заміна відео на 
valide.la.roxelane 
Новенький


З нами з: 11.01.17
Востаннє: 28.02.21
Повідомлень: 1

2020-05-17 22:21  
Легкий мультик, який передивляюсь щонайменше вдруге.
DankoPaladin 
Новенький


З нами з: 09.07.13
Востаннє: 03.03.21
Повідомлень: 10

2020-09-26 20:02  
Що відбувається в лівому аудіоканалі? Таке враження що актори аудіоозвучки працювали з незакритими дверми і в запис попала луна з іншої студії. Час від часу проступає настільки сильно, що тяжко сконцентруватись на основному аудіо Sad (1)
makajaha 
Новенький


З нами з: 29.11.12
Востаннє: 01.03.21
Повідомлень: 16

2020-09-27 13:25  
Як на мене - дуже слабенький мульт Sad (1)
Ваш часовий пояс: GMT + 2 Години

Нова тема   Відповісти