Прощавай, Африко! (Africa: Blood and Guts) / Africa addio (1966) Ita | Sub Ukr

Нові коментарі

Нова тема   Відповісти
Автор Повідомлення
evpdzen 
Поважний учасник


З нами з: 17.03.10
Востаннє: 22.04.21
Повідомлень: 214

2020-01-29 21:34  
Прощавай, Африко! / Africa addio (1966) Ita | Sub Ukr

Прощавай, Африко! (Africa: Blood and Guts) / Africa addio (1966) Ita | Sub Ukr


Жанр: документальний
Країна: Італія



Телеканал / кіностудія: Cineriz
Режисер: Ґуалтьєро Якопетті, Франко Проспері
Сюжет:
Цей фільм про перехідний період в історії африканського континенту; перехід від білого колоніалізму до незалежної чорної державності. Часто це призводило до масової різанини тисяч людей та знищення дикої природи. Зняті на плівку загони найманих вбивць, які винищують цілі села, розстріли, різанина Мау-Мау та багато іншого. Стрічка - приклад справжньої документалістики, знятої з ризиком для життя відважних операторів, зразок справжнього кіномистецтва у всьому, від постановки кадру до музичного супроводу.

Тепер так не знімають.

Обережно! Не рекомендую дивитися особам зі слабкою психікою і дітям.


Тривалість: 02:18:37
Якість:
Відео:
кодек:
розмір кадру: 714х364
бітрейт: 1999 кб/с

Аудіо:
мова: італійська
переклад: оригінал
кодек: 2.0
бітрейт: 192 кб/с

Субтитри:
мова: українська
тип: програмні (м'які)
формат: *.srt
переклад: Denys Zen
Скріншоти



Info
Код:
General
Complete name               : Africa Addio (1964) [Ita Sub Ukr] [Hurtom.com].avi
Format                      : AVI
Format/Info                 : Audio Video Interleave
Format profile              : OpenDML
File size                   : 2.13 GiB
Duration                    : 2 h 18 min
Overall bit rate            : 2 203 kb/s
Writing application         : Lavf57.37.100

Video
ID                          : 0
Format                      : MPEG-4 Visual
Format profile              : Advanced [email protected]
Format settings             : BVOP3
Format settings, BVOP       : 3
Format settings, QPel       : No
Format settings, GMC        : No warppoints
Format settings, Matrix     : Default (H.263)
Codec ID                    :
Codec ID/Hint               :
Duration                    : 2 h 18 min
Bit rate                    : 1 999 kb/s
Width                       : 714 pixels
Height                      : 364 pixels
Display aspect ratio        : 2.35:1
Frame rate                  : 29.970 (30000/1001) FPS
Color space                 : YUV
Chroma subsampling          : 4:2:0
Bit depth                   : 8 bits
Scan type                   : Progressive
Compression mode            : Lossy
Bits/(Pixel*Frame)          : 0.257
Stream size                 : 1.94 GiB (91%)
Writing library             : Lavc57.43.100

Audio
ID                          : 1
Format                      : AC-3
Format/Info                 : Audio Coding 3
Commercial name             : Dolby Digital
Codec ID                    : 2000
Duration                    : 2 h 18 min
Bit rate mode               : Constant
Bit rate                    : 192 kb/s
Channel(s)                  : 2 channels
Channel layout              : L R
Sampling rate               : 48.0 kHz
Frame rate                  : 31.250 FPS (1536 SPF)
Bit depth                   : 16 bits
Compression mode            : Lossy
Stream size                 : 190 MiB (9%)
Alignment                   : Aligned on interleaves
Interleave, duration        : 32  ms (0.96 video frame)
Service kind                : Complete Main
Джерело:
Особиста оцінка: 10 - без зайвих вагань рекомендую всім!


Золотий реліз (завантажене не впливає на рейтинг)
 Трекер:    Зареєстрований   

Завантажити / скачати торрент



відео для новачків



 Зареєстрований:   2020-01-29 21:34
 Розмір:   2.13 GB 
 Оцінка:   7.8/10 (Голосів: 4)
   
АндрійСхідний 
Частий відвідувач


З нами з: 05.04.12
Востаннє: 05.04.21
Повідомлень: 43

2020-01-29 21:59  
Потужний фільм! Один з найкращих з документальних фільмів, що мені доводилось бачити
lmn 
Свій


З нами з: 10.03.09
Востаннє: 22.04.21
Повідомлень: 141

2020-01-30 00:53  
Кіно, яке дійсно заслуговує уваги.
Timm 
VIP


З нами з: 04.12.15
Востаннє: 22.04.21
Повідомлень: 265

2020-03-19 03:28  
дякую за створення сабів
Ваш часовий пояс: GMT + 2 Години

Нова тема   Відповісти