Іван Виговський (2016) 720p

Нові коментарі

Нова тема   Відповісти
Автор Повідомлення
killer2015 
Поважний учасник


З нами з: 30.01.15
Востаннє: 30.10.20
Повідомлень: 153

2020-01-29 12:23  
Іван Виговський (2016) 720p

Іван Виговський (2016) 720p


Жанр: документальне, історичне
Країна: Україна

Телеканал / кіностудія: Всеукраїнське товариство "Просвіта"
Режисер: Дмитро Ломачук
Текст читав: Михайло Войчук

Сюжет:
Він став гетьманом у вкрай складний час. Зовнішня і внутрішня ситуації змушували шукати різні комбінації та грати в складні дипломатичні ігри.
Тільки два роки він гетьманував, але за цей короткий час встиг прибрати багато нищівних визначень своєї особи та діяльності, лайливих, чорних епітетів — і від сучасників, і від нащадків —істориків, для яких при згадуванні його імені ритуально обов'язковими були такі дефініції — «підлий зрадник», «ставленик і прислужник шляхетської Польщі і польських панів».
Але насправді це був щирий патріот України, один із найвизначніших українських діячів середини XVII ст., політик, дипломат, державний діяч високої кваліфікації, воєначальник. Він повстав проти панування Московії в Україні та відстоював незалежність Української держави.


Тривалість: 00:21:01
Якість:
Відео:
кодек: Н.264
розмір кадру: 1280 х 720
бітрейт: 1 711 кб/с

Аудіо:
мова: українська
переклад: оригінал
кодек: 2.0
бітрейт: 128 кб/с
МедіаІнфо
General
Complete name : G:\Фільми\Іван Виговський.mp4
Format : MPEG-4
Format profile : Base Media / Version 2
Codec ID : mp42 (isom/mp42)
File size : 277 MiB
Duration : 21 min 1 s
Overall bit rate mode : Variable
Overall bit rate : 1 840 kb/s
Encoded date : UTC 2016-11-12 17:57:37
Tagged date : UTC 2016-11-12 17:57:37
gsst : 0
gstd : 1261145

Video
ID : 1
Format : AVC
Format/Info : Advanced Video Codec
Format profile : [email protected]
Format settings : CABAC / 3 Ref Frames
Format settings, CABAC : Yes
Format settings, Reference frames : 3 frames
Codec ID : avc1
Codec ID/Info : Advanced Video Coding
Duration : 21 min 1 s
Bit rate : 1 711 kb/s
Width : 1 280 pixels
Height : 720 pixels
Display aspect ratio : 16:9
Frame rate mode : Constant
Frame rate : 25.000 FPS
Color space : YUV
Chroma subsampling : 4:2:0
Bit depth : 8 bits
Scan type : Progressive
Bits/(Pixel*Frame) : 0.074
Stream size : 257 MiB (93%)
Title : ISO Media file produced by Google Inc.
Encoded date : UTC 2016-11-12 17:57:37
Tagged date : UTC 2016-11-12 17:57:37
Color range : Limited
Color primaries : BT.709
Transfer characteristics : BT.709
Matrix coefficients : BT.709
Codec configuration box : avcC

Audio
ID : 2
Format : LC
Format/Info : Advanced Audio Codec Low Complexity
Codec ID : mp4a-40-2
Duration : 21 min 1 s
Bit rate mode : Variable
Bit rate : 126 kb/s
Channel(s) : 2 channels
Channel layout : L R
Sampling rate : 44.1 kHz
Frame rate : 43.066 FPS (1024 SPF)
Compression mode : Lossy
Stream size : 18.9 MiB (7%)
Title : ISO Media file produced by Google Inc.
Encoded date : UTC 2016-11-12 17:57:37
Tagged date : UTC 2016-11-12 17:57:37
Скріншоти




Джерело:


Золотий реліз (завантажене не впливає на рейтинг)
 Трекер:    Зареєстрований   

Завантажити / скачати фільм українською



відео для новачків



 Зареєстрований:   2020-01-29 12:23
 Розмір:   277 MB 
 Оцінка фільму:   10/10 (Голосів: 8)
   
Ваш часовий пояс: GMT + 2 Години

Нова тема   Відповісти