Петро Сагайдачний (2015) 720p

Нові коментарі

Нова тема   Відповісти
Автор Повідомлення
killer2015 
Свій


З нами з: 30.01.15
Востаннє: 24.10.20
Повідомлень: 149

2020-01-29 12:12  
Петро Сагайдачний (2015) 720p

Петро Сагайдачний (2015) 720p


Жанр: документальне, історичне
Країна: Україна

Телеканал / кіностудія: Всеукраїнське товариство "Просвіта"
Режисер: Дмитро Ломачук
Текст читав: Михайло Войчук

Сюжет:
Не було у вітчизняній історії після Святослава більшого звитяжця, на якого Україні потрібно було чекати майже шістсот років, аби запобігти поневоленню новою Хазарією, що йменувалася Московією...
Уславив своє ім’я багатьма переможними морськими походами... Його військо захопило потужну турецьку фортецю Кафу й визволило багато полонених українців, заволоділо турецьким містом Трапезундом…
Його військо висаджувалося в передмісті Оттоманської столиці, ходило на Москву й брало приступом Арбатські ворота…


Тривалість: 00:21:07
Якість: 720р

Відео:
кодек: Н.264
розмір кадру: 1280 х 720
бітрейт: 1 132 кб/с

Аудіо:
мова: українська
переклад: оригінал
кодек: AАС 2.0
бітрейт: 128 кб/с
МедіаІнфо
General
Complete name : G:\Фільми\Петро Сагайдачний.mp4
Format : MPEG-4
Format profile : Base Media / Version 2
Codec ID : mp42 (isom/mp42)
File size : 191 MiB
Duration : 21 min 7 s
Overall bit rate mode : Variable
Overall bit rate : 1 264 kb/s
Encoded date : UTC 2019-03-20 19:41:59
Tagged date : UTC 2019-03-20 19:41:59
gsst : 0
gstd : 1267739

Video
ID : 1
Format : AVC
Format/Info : Advanced Video Codec
Format profile : [email protected]
Format settings : CABAC / 3 Ref Frames
Format settings, CABAC : Yes
Format settings, Reference frames : 3 frames
Codec ID : avc1
Codec ID/Info : Advanced Video Coding
Duration : 21 min 7 s
Bit rate : 1 132 kb/s
Width : 1 280 pixels
Height : 720 pixels
Display aspect ratio : 16:9
Frame rate mode : Constant
Frame rate : 25.000 FPS
Color space : YUV
Chroma subsampling : 4:2:0
Bit depth : 8 bits
Scan type : Progressive
Bits/(Pixel*Frame) : 0.049
Stream size : 171 MiB (90%)
Title : ISO Media file produced by Google Inc. Created on: 03/20/2019.
Writing library : core 155 r2901 7d0ff22
Encoded date : UTC 2019-03-20 19:41:59
Tagged date : UTC 2019-03-20 19:41:59
Color range : Limited
Color primaries : BT.709
Transfer characteristics : BT.709
Matrix coefficients : BT.709
Codec configuration box : avcC

Audio
ID : 2
Format : LC
Format/Info : Advanced Audio Codec Low Complexity
Codec ID : mp4a-40-2
Duration : 21 min 7 s
Bit rate mode : Variable
Bit rate : 128 kb/s
Channel(s) : 2 channels
Channel layout : L R
Sampling rate : 44.1 kHz
Frame rate : 43.066 FPS (1024 SPF)
Compression mode : Lossy
Stream size : 19.3 MiB (10%)
Title : ISO Media file produced by Google Inc. Created on: 03/20/2019.
Language : Russian
Encoded date : UTC 2019-03-20 19:41:59
Tagged date : UTC 2019-03-20 19:41:59
Скріншоти



Джерело:


Золотий реліз (завантажене не впливає на рейтинг)
 Трекер:    Зареєстрований   

Завантажити / скачати фільм українською



відео для новачків



 Зареєстрований:   2020-01-29 12:12
 Розмір:   191 MB 
 Оцінка фільму:   10/10 (Голосів: 7)
   
Ваш часовий пояс: GMT + 2 Години

Нова тема   Відповісти